Ссылка на приватное зеркало всего за 1$. Внимание количество ограничено!!!


iTunes

1+1

iTunes

мы

WEB-DL

1

iTunes

Чернобыль

iTunes

Ральф против интернета

Лицензия

ПШазам

Лицензия

Оно 2

WEB-DL

30
pack

Вам бонус

ВАЖНО

!!Акция!!

Alien_RageХит недели

RePack

Resident Evil 21

ИГРА 18+

pack

RePack

jed

!!Акция!!

Alien_Rage

RePack

fifa19

RePack

Assassins Creed: Odyssey

RePack

NEED FOR SPEED™ PAYBACK

4 сезон

9 сезон

Бесстыжие 9 сезон

Все сериалы

все сериалы на PB.wtf

RePack

FAR CRY 5
Ребята, катастрофически не хватает 1900р. для оплаты серверов за Октябрь (всвязи с блокировками трафик упал в 3 раза), 1-2р., выручайте.
  

Хеллбой: Дилогия / Hellboy: Dilogy (Гильермо дель Торо) [2004-2008 г., фантастика, фэнтези, боевик, приключения, HDRip by Dean24] (Дубляж Лицензия) pb.wtf

Хеллбой: Дилогия через торрент pb.wtf

Качают: 2 [ 0 KB/s ]
Размер: 4.31 GB | Добавлен: 4 года 1 мес. назад | Торрент скачан:19 раз
Скачать  

31-10-2015 18:02 Хеллбой: Дилогия Скачать торрент  

Хеллбой: Герой из пекла / HellboyГод выпуска: 2004
Страна: США
Жанр: фантастика, фэнтези, боевик, приключения
Продолжительность: 02:12:29 | Director's Cut
Перевод: Дубляж | Blu-ray CEE со вставками многоголосого (Киномания)
Субтитры: Нет

Режиссер: Гильермо дель Торо
Продюссер: Лоуренс Гордон, Ллойд Левин, Майк Ричардсон
Сценарий: Гильермо дель Торо, Питер Бриггс, Майк Миньола

Бюджет: $66 000 000
Премьера в мире: 30 марта 2004



В ролях: Рон Перлман, Джон Хёрт, Сэльма Блэр, Руперт Эванс, Карел Роден, Джеффри Тэмбор, Даг Джонс, Брайан Стил, Ладислав Беран, Бидди Ходсон

Описание: Вторая мировая война. Нацисты терпят одно сокрушительное поражение за другим. В результате исследования оккультных ритуалов в супер-секретной лаборатории ученым, работающим на фашистский режим, удается поднять из небытия Демона Ада, который должен помочь переломить ход войны.
Но в научную лабораторию тайно проникает отряд союзников и поворачивает это мистическое и грозное оружие против нацистов. Однако никто из участников эксперимента и не предполагает, что врата потустороннего мира после открытия окажутся неподвластны людям, и им придется столкнуться с существами еще более опасными и непредсказуемыми, чем Демон Ада…

Качество: HDRip | BDRip 720p
Формат: AVI
Видео кодек: XviD
Аудио кодек: AC3
Видео: 704x384 (1.83:1), 23.976 fps, XviD build 50 ~1958 kbps avg, 0.30 bit/pixel
Аудио: 48 kHz, AC3 Dolby Digital, 3/2 (L,C,R,l,r) + LFE ch, ~384 kbps



Автор рипа: Dean24 |
Общее
Полное имя : D:\Мои документы\Фильмы\Сайт\Hellboy.Dilogy\Hellboy.HDRip.avi
Формат : AVI
Формат/Информация : Audio Video Interleave
Профиль формата : OpenDML
Размер файла : 2,14 Гбайт
Продолжительность : 2 ч. 12 м.
Общий поток : 2314 Кбит/сек
Программа кодирования : VirtualDubMod 1.5.10.3 | www.virtualdub-fr.org || (build 2550/release)
Библиотека кодирования : VirtualDubMod build 2550/release

Видео
Идентификатор : 0
Формат : MPEG-4 Visual
Профиль формата : Advanced Simple@L5
Параметр BVOP формата : 3
Параметр QPel формата : Нет
Параметр GMC формата : Без точки перехода
Параметр матрицы формата : Default (H.263)
Идентификатор кодека : XVID
Идентификатор кодека/Подсказка : XviD
Продолжительность : 2 ч. 12 м.
Битрейт : 1954 Кбит/сек
Ширина : 704 пикселя
Высота : 384 пикселя
Соотношение сторон : 1,85:1
Частота кадров : 23,976 кадра/сек
Цветовое пространство : YUV
Субдискретизация насыщенности : 4:2:0
Битовая глубина : 8 бит
Тип развёртки : Прогрессивная
Метод сжатия : С потерями
Бит/(Пиксели*Кадры) : 0.301
Размер потока : 1,81 Гбайт (84%)
Библиотека кодирования : XviD 1.2.1 (UTC 2008-12-04)

Аудио
Идентификатор : 1
Формат : AC-3
Формат/Информация : Audio Coding 3
Расширение режима : CM (complete main)
Параметр Endianness формата : Big
Идентификатор кодека : 2000
Продолжительность : 2 ч. 0 м.
Вид битрейта : Постоянный
Битрейт : 384 Кбит/сек
Каналы : 6 каналов
Расположение каналов : Front: L C R, Side: L R, LFE
Частота : 48,0 КГц
Битовая глубина : 16 бит
Метод сжатия : С потерями
Размер потока : 330 Мбайт (15%)
Выравнивание : Разделение по промежуткам
Продолжительность промежутка : 46 мс. (1,10 видеокадр)
Время предзагрузки промежутка : 500 мс.


Хеллбой II: Золотая армия / Hellboy II: The Golden ArmyГод выпуска: 2008
Страна: США, Германия
Жанр: фантастика, фэнтези, боевик, приключения
Продолжительность: 01:59:41
Перевод: Дубляж | Лицензия
Субтитры: Нет

Режиссер: Гильермо дель Торо
Продюссер: Лоуренс Гордон, Ллойд Левин, Майк Ричардсон
Сценарий: Гильермо дель Торо, Майк Миньола

Бюджет: $85 000 000
Премьера в мире: 28 июня 2008



В ролях: Рон Перлман, Сэльма Блэр, Даг Джонс, Джон Александр, Джеймс Додд, Сет МакФарлейн, Люк Госс, Анна Уолтон, Джеффри Тэмбор, Джон Хёрт

Описание: После того как древнее перемирие между человечеством и тайным миром было нарушено, на Земле вот-вот разверзнется ад. Безжалостный лидер, вхожий в оба мира, бросает вызов своей крови и пробуждает на свет неодолимую армию чудовищ.
Настало время самому Хэллбою сразиться с беспощадным диктатором и его воинами. Вместе со своей пополняющей ряды командой «Бюро Паранормальных Исследований и Развития» он будет бороздить границы двух миров — нашего и скрытого, где самые невероятные существа обретают плоть. Хэллбою, порожденному обоими мирами, но не принадлежащему ни одному из них, предстоит выбирать между жизнью, которую он знает, и неизвестностью новой судьбы...

Качество: HDRip | BDRip 720p
Формат: AVI
Видео кодек: XviD
Аудио кодек: AC3
Видео: 704x384 (1.83:1), 23.976 fps, XviD build 50 ~2206 kbps avg, 0.34 bit/pixel
Аудио: 48 kHz, AC3 Dolby Digital, 3/2 (L,C,R,l,r) + LFE ch, ~384 kbps



Автор рипа: Dean24 |
Общее
Полное имя : D:\Мои документы\Фильмы\Сайт\Hellboy.Dilogy\Hellboy.II.The.Golden.Army.HDRip.avi
Формат : AVI
Формат/Информация : Audio Video Interleave
Профиль формата : OpenDML
Размер файла : 2,17 Гбайт
Продолжительность : 1 ч. 59 м.
Общий поток : 2597 Кбит/сек
Программа кодирования : VirtualDubMod 1.5.10.3 | www.virtualdub-fr.org || (build 2550/release)
Библиотека кодирования : VirtualDubMod build 2550/release

Видео
Идентификатор : 0
Формат : MPEG-4 Visual
Профиль формата : Advanced Simple@L5
Параметр BVOP формата : 3
Параметр QPel формата : Нет
Параметр GMC формата : Без точки перехода
Параметр матрицы формата : Default (H.263)
Идентификатор кодека : XVID
Идентификатор кодека/Подсказка : XviD
Продолжительность : 1 ч. 59 м.
Битрейт : 2202 Кбит/сек
Ширина : 704 пикселя
Высота : 384 пикселя
Соотношение сторон : 1,85:1
Частота кадров : 23,976 кадра/сек
Цветовое пространство : YUV
Субдискретизация насыщенности : 4:2:0
Битовая глубина : 8 бит
Тип развёртки : Прогрессивная
Метод сжатия : С потерями
Бит/(Пиксели*Кадры) : 0.340
Размер потока : 1,84 Гбайт (85%)
Библиотека кодирования : XviD 1.2.1 (UTC 2008-12-04)

Аудио
Идентификатор : 1
Формат : AC-3
Формат/Информация : Audio Coding 3
Расширение режима : CM (complete main)
Параметр Endianness формата : Big
Идентификатор кодека : 2000
Продолжительность : 1 ч. 59 м.
Вид битрейта : Постоянный
Битрейт : 384 Кбит/сек
Каналы : 6 каналов
Расположение каналов : Front: L C R, Side: L R, LFE
Частота : 48,0 КГц
Битовая глубина : 16 бит
Метод сжатия : С потерями
Размер потока : 329 Мбайт (15%)
Выравнивание : Разделение по промежуткам
Продолжительность промежутка : 42 мс. (1,00 видеокадр)
Время предзагрузки промежутка : 500 мс.

pb.wtf



Скачать Хеллбой: Дилогия через торрент http://i66.fastpic.ru/big/2015/1031/0f/fa0ca9aca0f4db3266d3cca726fced0f.png Скачать фильм Хеллбой: Дилогия через торрент бесплантно в хорошем качестве Описание: Вторая мировая война. Нацисты терпят одно сокрушительное поражение за другим. В результате исследования оккультных ритуалов в ... 10 10 15
Info! Золотая раздача, скачанное не засчитывается.
Торрент: Зарегистрирован [2015-10-31 18:02] · скачан: 19 раз
Статус: √ проверено
Размер: 4.31 GB
Как cкачать? Как скачать Хеллбой: Дилогия через торрент | qTorrent

% Раздел Тема Автор DL S | L
Сборники и Сиквелы (48-60 fps) [ 27.23 GB ] Хеллбой: Дилогия / Hellboy: Dilogy [2004-2008 BDRip 1080p / 60 FPS ] Tiberiumsun69 Скачать
3 | 0
Сборники (HD Video) [ 23.05 GB ] Хеллбой. Дилогия / Hellboy. Dilogy [2004-2008 BDRip 720p] [DUB MVO AVO] Kavasar Скачать
1 | 0
Сборники и Сиквелы (48-60 fps) [ 18.18 GB ] Хеллбой: Дилогия / Hellboy: Dilogy [2004-2008 BDRip 720p / 60 FPS ] Tiberiumsun69 Скачать
2 | 0

28-11-2019 20:33  

Отключить всю рекламу на сайте

09-03-2017 01:39 Хеллбой: Дилогия Скачать торрент  

В топку, на раздаче никого нет.pb.wtf



    Дорогой пользователь! Огромная просьба, поблагодарите релизера, оцените раздачу и оставьте свои комментарий, если Вы скачали Хеллбой: Дилогия через торрент бесплатно! Внесите свою лепту в развитие PiratBit!
    Комментировать посты могут только пользователи прошедшие не сложную регистрацию
    Показать сообщения:    

    Хеллбой: Дилогия через торрент
    Скачать бесплатно Хеллбой: Дилогия
    Хеллбой: Дилогия скачать торрент
    Хеллбой: Дилогия смотреть онлайн
    Cкачать фильм Хеллбой: Дилогия бесплатно
    Хеллбой: Дилогия скачать торрент в хорошем качестве
    Хеллбой: Дилогия смотреть онлайн бесплатно в хорошем качестве


    Вы не можете начинать темы
    Вы не можете отвечать на сообщения
    Вы не можете редактировать свои сообщения
    Вы не можете удалять свои сообщения
    Вы не можете голосовать в опросах
    Вы не можете прикреплять файлы к сообщениям
    Вы можете скачивать файлы