Ссылка на приватное зеркало нашего сайта всего за 1$. Внимание количество ограничено!!!

2 сезон

iTunes

1 сезон

1

2 сезон

2 сезон

iTunes

1 сезон

RePack

30

Ultimate

ВАЖНО

ИГРА 18+

pack

RePack

MK11
pack

Забери бонус

RePack

jed

!!Акция!!

Alien_Rage

RePack

fifa19

RePack

Assassins Creed: Odyssey

RePack

NEED FOR SPEED™ PAYBACK

4 сезон

9 сезон

Бесстыжие 9 сезон

Все сериалы

все сериалы на PB.wtf

RePack

FAR CRY 5
  

Бриджит Джонс: Грани разумного / Bridget Jones: The Edge of Reason (Бибан Кидрон) [2004, драма, мелодрама, комедия, BDRip 1080p от еnvy / NNNB] DUB, MVO, AVO pb.wtf

Бриджит Джонс: Грани разумного через торрент pb.wtf

Раздают: 19 [ 200 KB/s ] Качают: 2 [ 533 KB/s ]
Размер: 7.74 GB | Добавлен: 3 года 8 мес. назад | Торрент скачан:75 раз
Скачать  

12-03-2017 13:17 Бриджит Джонс: Грани разумного Скачать торрент  

Информация о фильме

Русское название: Бриджит Джонс: Грани разумного
Оригинальное название: Bridget Jones: The Edge of Reason
Год выхода: 2004
Жанр: драма, мелодрама, комедия
Режиссер: Бибан Кидрон
Выпущено: Великобритания, Франция, Германия, Ирландия, США
Продолжительность: 01:47:27
Перевод: Дублированный, Профессиональный (многоголосый закадровый), Авторский (одноголосый закадровый)
В ролях: Рене Зеллвегер, Колин Фёрт, Хью Грант, Джемма Джонс, Джим Бродбент, Джеймс Фолкнер, Селия Имри, Доминик МакХейл, Дональд Дуглас, Ширли Диксон
Описание:

Между событиями первого и второго фильмов четыре недели, и снова Бриджет не устраивают её отношения с Марком Дарси. Помимо того, что он оказался избирателем консерваторов, она вынуждена иметь дело со странным подрядчиком своего нового начальника, к тому же отпуск оборачивается полной неудачей...


Файл

Качество: BDRip 1080p (исходник Blu-Ray Disc Remux)
Формат: MKV
Видео: 1916x800, 8604 Кбит/сек, 23,976 кадр/сек, AVC, x264, High@L4.1, 2.40:1, 0.234 Бит/[Пиксели*Кадры]
Аудио 1: AC-3, 384 Кбит/сек, 6 канала(ов), 48,0 КГц - Дублированный / Русский
Аудио 2: AC-3, 448 Кбит/сек, 6 канала(ов), 48,0 КГц - Многоголосый закадровый, Tycoоn-studio / Русский
Аудио 3: AC-3, 448 Кбит/сек, 6 канала(ов), 48,0 КГц - Одноголосый закадровый, Ю.Немахов / Русский
Аудио 4: AC-3, 448 Кбит/сек, 6 канала(ов), 48,0 КГц - Оригинал / Английский
Субтитры: Русские | Полные, Английские | Полные
Форсированные субтитры: Нет
Чаптеры (Главы): Есть






Автор Рипа: Группа:


Format : Matroska
Format version : Version 2
File size : 7.74 GiB
Duration : 1 h 47 min
Overall bit rate : 10.3 Mb/s
Movie name : Bridget Jones: The Edge of Reason.(2004).BDRip.1080p.[envy]
Encoded date : UTC 2017-03-09 15:47:36
Writing application : mkvmerge v5.8.0 ('No Sleep / Pillow') built on Sep 2 2012 15:37:04
Writing library : libebml v1.2.3 + libmatroska v1.3.0

Video
ID : 1
Format : AVC
Format/Info : Advanced Video Codec
Format profile : High@L4.1
Format settings, CABAC : Yes
Format settings, ReFrames : 5 frames
Codec ID : V_MPEG4/ISO/AVC
Duration : 1 h 47 min
Bit rate : 8 604 kb/s
Width : 1 916 pixels
Height : 800 pixels
Display aspect ratio : 2.40:1
Frame rate mode : Constant
Frame rate : 23.976 (24000/1001) FPS
Color space : YUV
Chroma subsampling : 4:2:0
Bit depth : 8 bits
Scan type : Progressive
Bits/(Pixel*Frame) : 0.234
Stream size : 6.29 GiB (81%)
Title : Bridget Jones: The Edge of Reason.(2004).BDRip.1080p.[envy]
Writing library : x264 core 148 r2744 b97ae06
Encoding settings : cabac=1 / ref=5 / deblock=1:-3:-3 / analyse=0x3:0x133 / me=umh / subme=11 / psy=1 / psy_rd=1.00:0.09 / mixed_ref=1 / me_range=32 / chroma_me=1 / trellis=2 / 8x8dct=1 / cqm=0 / deadzone=21,11 / fast_pskip=0 / chroma_qp_offset=-3 / threads=12 / lookahead_threads=1 / sliced_threads=0 / nr=0 / decimate=1 / interlaced=0 / bluray_compat=0 / constrained_intra=0 / bframes=5 / b_pyramid=2 / b_adapt=2 / b_bias=0 / direct=3 / weightb=1 / open_gop=0 / weightp=2 / keyint=240 / keyint_min=23 / scenecut=40 / intra_refresh=0 / rc=2pass / mbtree=0 / bitrate=8604 / ratetol=2.0 / qcomp=0.60 / qpmin=0 / qpmax=69 / qpstep=4 / cplxblur=20.0 / qblur=0.5 / ip_ratio=1.40 / pb_ratio=1.30 / aq=1:0.70
Language : English
Default : Yes
Forced : No

Audio #1
ID : 2
Format : AC-3
Format/Info : Audio Coding 3
Mode extension : CM (complete main)
Format settings, Endianness : Big
Codec ID : A_AC3
Duration : 1 h 47 min
Bit rate mode : Constant
Bit rate : 384 kb/s
Channel(s) : 6 channels
Channel positions : Front: L C R, Side: L R, LFE
Sampling rate : 48.0 kHz
Frame rate : 31.250 FPS (1536 spf)
Bit depth : 16 bits
Compression mode : Lossy
Stream size : 295 MiB (4%)
Title : Dub
Language : Russian
Default : Yes
Forced : No

Audio #2
ID : 3
Format : AC-3
Format/Info : Audio Coding 3
Mode extension : CM (complete main)
Format settings, Endianness : Big
Codec ID : A_AC3
Duration : 1 h 47 min
Bit rate mode : Constant
Bit rate : 448 kb/s
Channel(s) : 6 channels
Channel positions : Front: L C R, Side: L R, LFE
Sampling rate : 48.0 kHz
Frame rate : 31.250 FPS (1536 spf)
Bit depth : 16 bits
Compression mode : Lossy
Stream size : 344 MiB (4%)
Title : MVO Tycoоn-studio
Language : Russian
Default : No
Forced : No

Audio #3
ID : 4
Format : AC-3
Format/Info : Audio Coding 3
Mode extension : CM (complete main)
Format settings, Endianness : Big
Codec ID : A_AC3
Duration : 1 h 47 min
Bit rate mode : Constant
Bit rate : 448 kb/s
Channel(s) : 6 channels
Channel positions : Front: L C R, Side: L R, LFE
Sampling rate : 48.0 kHz
Frame rate : 31.250 FPS (1536 spf)
Bit depth : 16 bits
Compression mode : Lossy
Stream size : 344 MiB (4%)
Title : AVO Немахов
Language : Russian
Default : No
Forced : No

Audio #4
ID : 5
Format : AC-3
Format/Info : Audio Coding 3
Mode extension : CM (complete main)
Format settings, Endianness : Big
Codec ID : A_AC3
Duration : 1 h 47 min
Bit rate mode : Constant
Bit rate : 448 kb/s
Channel(s) : 6 channels
Channel positions : Front: L C R, Side: L R, LFE
Sampling rate : 48.0 kHz
Frame rate : 31.250 FPS (1536 spf)
Bit depth : 16 bits
Compression mode : Lossy
Stream size : 344 MiB (4%)
Title : Eng
Language : English
Default : No
Forced : No

Text #1
ID : 6
Format : UTF-8
Codec ID : S_TEXT/UTF8
Codec ID/Info : UTF-8 Plain Text
Title : Rus full
Language : Russian
Default : No
Forced : No

Text #2
ID : 7
Format : UTF-8
Codec ID : S_TEXT/UTF8
Codec ID/Info : UTF-8 Plain Text
Title : Eng full
Language : English
Default : No
Forced : No

Menu
00:00:00.000 : :Chapter 01
00:07:07.176 : :Chapter 02
00:12:34.378 : :Chapter 03
00:18:18.597 : :Chapter 04
00:22:58.836 : :Chapter 05
00:28:36.130 : :Chapter 06
00:34:15.178 : :Chapter 07
00:42:11.946 : :Chapter 08
00:49:44.857 : :Chapter 09
00:54:06.827 : :Chapter 10
01:00:24.120 : :Chapter 11
01:08:18.094 : :Chapter 12
01:14:08.361 : :Chapter 13
01:21:59.957 : :Chapter 14
01:25:13.774 : :Chapter 15
01:33:18.718 : :Chapter 16

pb.wtf



Скачать Бриджит Джонс: Грани разумного через торрент http://img11.lostpic.net/2017/03/12/0b8d08efe21937c5a65ee5f274f83efb.png Скачать фильм Бриджит Джонс: Грани разумного через торрент бесплантно в хорошем качестве Описание:Между событиями первого и второго фильмов четыре недели, и снова Бриджет не устраивают её отношения с Марком Дарси. Помимо того, ... 5.5 10 2
Info! Золотая раздача, скачанное не засчитывается.
Торрент: Зарегистрирован [2017-03-12 13:17] · скачан: 75 раз
Статус: √ проверено
Размер: 7.74 GB
Как cкачать? Как скачать Бриджит Джонс: Грани разумного через торрент | qTorrent

28-11-2019 20:33  

Отключить всю рекламу на сайте

    Дорогой пользователь! Огромная просьба, поблагодарите релизера, оцените раздачу и оставьте свои комментарий, если Вы скачали Бриджит Джонс: Грани разумного через торрент бесплатно! Внесите свою лепту в развитие PiratBit!
    Комментировать посты могут только пользователи прошедшие не сложную регистрацию
    Показать сообщения:    

    Бриджит Джонс: Грани разумного через торрент
    Скачать бесплатно Бриджит Джонс: Грани разумного
    Бриджит Джонс: Грани разумного скачать торрент
    Бриджит Джонс: Грани разумного смотреть онлайн
    Cкачать фильм Бриджит Джонс: Грани разумного бесплатно
    Бриджит Джонс: Грани разумного скачать торрент в хорошем качестве
    Бриджит Джонс: Грани разумного смотреть онлайн бесплатно в хорошем качестве


    Вы не можете начинать темы
    Вы не можете отвечать на сообщения
    Вы не можете редактировать свои сообщения
    Вы не можете удалять свои сообщения
    Вы не можете голосовать в опросах
    Вы не можете прикреплять файлы к сообщениям
    Вы можете скачивать файлы