Всегда рабочее зеркало без VPN и Proxy просто перед .vidak.icu напиши любое слово или цифру, Пример http://s85t.vidak.icu

MVO

Лицензия

1 сезон

1

1 сезон

iTunes

1 сезон

13

1 сезон

Deluxe

pack

Рекомендуем

Пиратка

30

ВАЖНО

RePack

MK11

RePack

jed

RePack

fifa19

RePack

RDR2

RePack

NEED FOR SPEED™ PAYBACK

Кинопоиск HD

6 сезон

 Острые козырьки 6 сезон

Все сериалы

все сериалы на PB.wtf

RePack

FAR CRY 5

Anonymous, нам критически не хватает 2100 руб. на оплату серверов и переферии за МАЙ, помоги нам пожалуйста, вся надежда только на тебя. В благодарность мы отключим тебе всю рекламу на сайте!

×
  
Magnet ссылка

Пандорум / Pandorum (Кристиан Алверт) [2009, ужасы, фантастика, боевик, триллер, детектив, BDRip 1080p by msltel] DUB, 3 x AVO / Open Matte pb.wtf

Пандорум через торрент pb.wtf

Размер: 19.82 GB | Добавлен: 5 лет 3 мес. назад | Торрент скачан:148 раз
Смотреть онлайн Пандорум | Скачать    Ребята, помогите собрать деньги на оплату серверов!!!

16-03-2017 06:37 Пандорум Скачать торрент  

Название: Пандорум
Оригинальное название: Pandorum
Год выпуска: 2009
Страна: Германия, Великобритания
Жанр: ужасы, фантастика, боевик, триллер, детектив
Продолжительность: 01:47:58
Перевод: дублированный, авторский

Режиссёр: Кристиан Алверт

В ролях: Дэннис Куэйд, Бен Фостер, Кэм Жиганде, Антье Трауэ, Кунг Ле, Эдди Роус, Норман Ридус, Андре Хеннике, Фридерике Кемптер, Нильс-Бруно Шмидт, Азия Луна Мохмад, Дэльфин Шийо, Вотан Вильке Мёринг, Джулиан Рэйпп, Доменико Д’Амброзио, Джон Фостер, Джефф Баррелл, Нилеша БаВора, Янгзом Брауен, Альбрехт Марко, Давид Шатарски, Нико Марквардт

Описание: В безднах космоса движется звездолёт. Два члена команды, пробудившиеся от гиперсна, оказываются в сложной ситуации: оборудование не работает и вспомнить они ничего не могут. Какова была их миссия? Сколько времени прошло? Где они? Кто они? На все эти вопросы у них нет ответов. К тому же, на корабле обнаруживаются чужие — злобные воины, которые крушат всё на своём пути. У космических путешественников очень мало времени. Теперь для них собственные жизни не самое главное, ибо только от них двоих, возможно, зависит спасение человечества. Нужно любой ценой восстановить управление кораблём, пока загадочный Пандорум не взял Влacть в свои руки...



Качество: BDRip 1080p
Формат: MKV
Видео: MPEG-4 AVC, 18.8 Mбит/с, 1920x1080, 24 кадра/с
Аудио 1: русский, DTS, 1509 kbps, 6 ch, 48 kHz [дублированный, С.Р.И.]
Аудио 2: русский, DTS, 1509 kbps, 6 ch, 48 kHz [авторский, Андрей Гаврилов]
Аудио 3: русский, DTS, 1509 kbps, 6 ch, 48 kHz [авторский, Юрий Живов]
Аудио 4: русский, AC3, 1509 kbps, 6 ch, 48 kHz [авторский, Юрий Немахов]
Аудио 5: английский, DTS, 1509 kbps, 6 ch, 48 kHz [оригинал]
Субтитры 1: русские
Субтитры 2: английские
Имеются неименованные главы/чаптеры.
Общее
Уникальный идентификатор : 236445697570916492539708595128029948257 (0xB1E1C8F057AEA1CEBDF083D7EED82961)
Полное имя : D:\Video\Пандорум.2009.Open Matte.BDRip.1080p by msltel.mkv
Формат : Matroska
Версия формата : Version 4 / Version 2
Размер файла : 19,8 Гбайт
Продолжительность : 1 ч. 47 м.
Общий поток : 26,3 Мбит/сек
Название фильма : Rip by msltel
Дата кодирования : UTC 2017-03-16 02:41:05
Программа кодирования : mkvmerge v8.2.0 ('World of Adventure') 64bit
Библиотека кодирования : libebml v1.3.1 + libmatroska v1.4.2

Видео
Идентификатор : 1
Формат : AVC
Формат/Информация : Advanced Video Codec
Профиль формата : High@L4.1
Параметр CABAC формата : Да
Параметр ReFrames формата : 4 кадра
Идентификатор кодека : V_MPEG4/ISO/AVC
Продолжительность : 1 ч. 47 м.
Битрейт : 18,8 Мбит/сек
Ширина : 1920 пикселей
Высота : 1080 пикселей
Соотношение сторон : 16:9
Режим частоты кадров : Постоянный
Частота кадров : 24,000 кадра/сек
Цветовое пространство : YUV
Субдискретизация насыщенности : 4:2:0
Битовая глубина : 8 бит
Тип развёртки : Прогрессивная
Бит/(Пиксели*Кадры) : 0.377
Размер потока : 14,1 Гбайт (71%)
Библиотека кодирования : x264 core 146 r2538 121396c
Настройки программы : cabac=1 / ref=4 / deblock=1:-1:-1 / analyse=0x3:0x113 / me=umh / subme=11 / psy=1 / psy_rd=1.00:0.15 / mixed_ref=1 / me_range=32 / chroma_me=1 / trellis=2 / 8x8dct=1 / cqm=0 / deadzone=21,11 / fast_pskip=0 / chroma_qp_offset=-3 / threads=6 / lookahead_threads=1 / sliced_threads=0 / nr=0 / decimate=1 / interlaced=0 / bluray_compat=0 / constrained_intra=0 / bframes=8 / b_pyramid=2 / b_adapt=2 / b_bias=0 / direct=1 / weightb=1 / open_gop=0 / weightp=2 / keyint=230 / keyint_min=23 / scenecut=40 / intra_refresh=0 / rc_lookahead=40 / rc=crf / mbtree=0 / crf=18.6 / qcomp=0.60 / qpmin=0 / qpmax=69 / qpstep=4 / vbv_maxrate=62500 / vbv_bufsize=78125 / crf_max=0.0 / nal_hrd=none / filler=0 / ip_ratio=1.40 / pb_ratio=1.30 / aq=1:1.00
Язык : English
Default : Да
Forced : Нет

Аудио #1
Идентификатор : 2
Формат : DTS
Формат/Информация : Digital Theater Systems
Режим : 16
Параметр Endianness формата : Big
Идентификатор кодека : A_DTS
Продолжительность : 1 ч. 47 м.
Вид битрейта : Постоянный
Битрейт : 1509 Кбит/сек
Каналы : 6 каналов
Расположение каналов : Front: L C R, Side: L R, LFE
Частота : 48,0 КГц
Частота кадров : 93,750 кадра/сек (512 spf)
Битовая глубина : 24 бит
Метод сжатия : С потерями
Размер потока : 1,14 Гбайт (6%)
Заголовок : DUB (С.Р.И.)
Язык : Russian
Default : Да
Forced : Нет

Аудио #2
Идентификатор : 3
Формат : DTS
Формат/Информация : Digital Theater Systems
Режим : 16
Параметр Endianness формата : Big
Идентификатор кодека : A_DTS
Продолжительность : 1 ч. 47 м.
Вид битрейта : Постоянный
Битрейт : 1509 Кбит/сек
Каналы : 6 каналов
Расположение каналов : Front: L C R, Side: L R, LFE
Частота : 48,0 КГц
Частота кадров : 93,750 кадра/сек (512 spf)
Битовая глубина : 24 бит
Метод сжатия : С потерями
Размер потока : 1,14 Гбайт (6%)
Заголовок : AVO (Андрей Гаврилов)
Язык : Russian
Default : Нет
Forced : Нет

Аудио #3
Идентификатор : 4
Формат : DTS
Формат/Информация : Digital Theater Systems
Режим : 16
Параметр Endianness формата : Big
Идентификатор кодека : A_DTS
Продолжительность : 1 ч. 47 м.
Вид битрейта : Постоянный
Битрейт : 1509 Кбит/сек
Каналы : 6 каналов
Расположение каналов : Front: L C R, Side: L R, LFE
Частота : 48,0 КГц
Частота кадров : 93,750 кадра/сек (512 spf)
Битовая глубина : 24 бит
Метод сжатия : С потерями
Размер потока : 1,14 Гбайт (6%)
Заголовок : AVO (Юрий Живов)
Язык : Russian
Default : Нет
Forced : Нет

Аудио #4
Идентификатор : 5
Формат : DTS
Формат/Информация : Digital Theater Systems
Режим : 16
Параметр Endianness формата : Big
Идентификатор кодека : A_DTS
Продолжительность : 1 ч. 47 м.
Вид битрейта : Постоянный
Битрейт : 1509 Кбит/сек
Каналы : 6 каналов
Расположение каналов : Front: L C R, Side: L R, LFE
Частота : 48,0 КГц
Частота кадров : 93,750 кадра/сек (512 spf)
Битовая глубина : 24 бит
Метод сжатия : С потерями
Размер потока : 1,14 Гбайт (6%)
Заголовок : AVO (Юрий Немахов)
Язык : Russian
Default : Нет
Forced : Нет

Аудио #5
Идентификатор : 6
Формат : DTS
Формат/Информация : Digital Theater Systems
Режим : 16
Параметр Endianness формата : Big
Идентификатор кодека : A_DTS
Продолжительность : 1 ч. 47 м.
Вид битрейта : Постоянный
Битрейт : 1509 Кбит/сек
Каналы : 6 каналов
Расположение каналов : Front: L C R, Side: L R, LFE
Частота : 48,0 КГц
Частота кадров : 93,750 кадра/сек (512 spf)
Битовая глубина : 16 бит
Метод сжатия : С потерями
Размер потока : 1,14 Гбайт (6%)
Заголовок : original
Язык : English
Default : Нет
Forced : Нет

Текст #1
Идентификатор : 7
Формат : UTF-8
Идентификатор кодека : S_TEXT/UTF8
Идентификатор кодека/Информация : UTF-8 Plain Text
Продолжительность : 1 ч. 40 м.
Битрейт : 69 бит/сек
ElementCount : 1033
Размер потока : 51,3 Кбайт (0%)
Заголовок : русские
Язык : Russian
Default : Нет
Forced : Нет

Текст #2
Идентификатор : 8
Формат : UTF-8
Идентификатор кодека : S_TEXT/UTF8
Идентификатор кодека/Информация : UTF-8 Plain Text
Продолжительность : 1 ч. 37 м.
Битрейт : 43 бит/сек
ElementCount : 1026
Размер потока : 30,8 Кбайт (0%)
Заголовок : английские
Язык : English
Default : Нет
Forced : Нет

Меню
00:00:00.000 : de:00:00:00.000
00:03:14.041 : de:00:03:14.041
00:13:48.416 : de:00:13:48.416
00:23:32.708 : de:00:23:32.708
00:35:16.208 : de:00:35:16.208
00:45:18.125 : de:00:45:18.125
00:53:42.083 : de:00:53:42.083
01:00:16.541 : de:01:00:16.541
01:13:05.541 : de:01:13:05.541
01:27:00.458 : de:01:27:00.458
pb.wtf



Скачать Пандорум через торрент http://hostpic.gq/img/2017-03/14/c6buh0fha7vmolhm9wj7rw5of.jpg Скачать, смотреть онлайн Пандорум бесплантно в хорошем качестве Описание: В безднах космоса движется звездолёт. Два члена команды, пробудившиеся от гиперсна, оказываются в сложной ситуации: оборудование ... 9.3 10 12
Info! Золотая раздача, скачанное не засчитывается.
Торрент: Зарегистрирован [2017-03-16 06:37] · скачан: 148 раз
Статус: √ проверено
Размер: 19.82 GB
Как cкачать? Как скачать Пандорум через торрент | UTorrent

% Раздел Тема Автор DL S | L
Фильмы [HD 720p, 1080p] (Хороший звук DUB, MVO) [ 6.49 GB ] Пандорум / Pandorum [2009 BDRip 720p by msltel] DUB 3 x AVO / Open Matte msltel Скачать
1 | 0

28-11-2019 20:33  

Отключить всю рекламу на сайте

16-03-2017 07:02 Пандорум Скачать торрент  

Жаль что продолжения не снимают,как они там на планете дальше размножались и плодилисьpb.wtf



17-03-2017 15:20 Пандорум Скачать торрент  

Да , точно . Жаль, а хотелось бы посмотреть -как их там съели(..pb.wtf



    Дорогой пользователь! Огромная просьба, поблагодарите релизера, оцените раздачу и оставьте свои комментарий, если Вы скачали Пандорум через торрент бесплатно!
    Комментировать посты могут только пользователи прошедшие не сложную регистрацию
    Показать сообщения:    

    Пандорум через торрент
    Скачать бесплатно Пандорум
    Пандорум скачать торрент
    Пандорум смотреть онлайн
    Cкачать фильм Пандорум бесплатно
    Пандорум скачать торрент в хорошем качестве
    Пандорум смотреть онлайн бесплатно в хорошем качестве


    Вы не можете начинать темы
    Вы не можете отвечать на сообщения
    Вы не можете редактировать свои сообщения
    Вы не можете удалять свои сообщения
    Вы не можете голосовать в опросах
    Вы не можете прикреплять файлы к сообщениям
    Вы можете скачивать файлы