Ссылка на приватное зеркало нашего сайта всего за 1$. Внимание количество ограничено!!!

2 сезон

iTunes

1 сезон

1

2 сезон

2 сезон

iTunes

1 сезон

RePack

30

Ultimate

ВАЖНО

ИГРА 18+

pack

RePack

MK11
pack

Забери бонус

RePack

jed

!!Акция!!

Alien_Rage

RePack

fifa19

RePack

Assassins Creed: Odyssey

RePack

NEED FOR SPEED™ PAYBACK

4 сезон

9 сезон

Бесстыжие 9 сезон

Все сериалы

все сериалы на PB.wtf

RePack

FAR CRY 5
  

Ниндзя-убийца / Ninja Assassin (Джеймс МакТиг) [2009, боевик, триллер, криминал, BDRip 720p by msltel] DUB, 2 x AVO pb.wtf

Ниндзя-убийца через торрент pb.wtf

Размер: 4.67 GB | Добавлен: 3 года 8 мес. назад | Торрент скачан:497 раз
Скачать  

18-03-2017 07:22 Ниндзя-убийца Скачать торрент  

Название: Ниндзя-убийца
Оригинальное название: Ninja Assassin
Год выпуска: 2009
Страна: Германия, США
Жанр: боевик, триллер, криминал
Продолжительность: 01:38:31
Перевод: дублированный, авторский

Режиссёр: Джеймс МакТиг

В ролях: Санг Кенг, Рэндолл Дак Ким, Джонатан Чан-Пинсли, Юки Ивамото, Илл-Юнг Ким, Бен Майлз, Наоми Харрис, Би Рейн, Стивен Маркус, Лин Дэн Пэм

Описание: Рейзо — один из самых опасных убийц-ниндзя в мире. Ещё ребёнком его превратили в профессионального убийцу члены клана «Озуну» — секретной организации, чье существование до сих пор считалось выдумкой. Рейзо, преследуемый муками совести из-за беспощадного убийства своего друга кланом Озуну, сбегает от них. Но тайные кланы не отпускают «своих» просто так...



Качество: BDRip 720p
Формат: MKV
Видео: MPEG-4 AVC, 4809 Кбит/с, 1280x544, 23,976 кадра/с
Аудио 1: русский, AC3, 640 kbps, 6 ch, 48 kHz [дублированный, Blu-Ray CEE]
Аудио 2: русский, AC3, 448 kbps, 6 ch, 48 kHz [авторский, Сергей Визгунов]
Аудио 3: русский, AC3, 448 kbps, 6 ch, 48 kHz [авторский, Михаил Чадов, с ненормативной лексикой]
Аудио 4: английский, AC3, 448 kbps, 6 ch, 48 kHz [оригинал]
Субтитры 1: русские
Субтитры 2: русские (надписи)
Субтитры 3: английские (для слабослышащих)
Имеются неименованные главы/чаптеры.
Общее
Уникальный идентификатор : 192333587823332543365786595478446740725 (0x90B21A031D91C20A9CECE961CDB314F5)
Полное имя : D:\Video\Ниндзя-убийца.2009.BDRip.720p by msltel.mkv
Формат : Matroska
Версия формата : Version 4 / Version 2
Размер файла : 4,67 Гбайт
Продолжительность : 1 ч. 38 м.
Общий поток : 6792 Кбит/сек
Название фильма : Rip by msltel
Дата кодирования : UTC 2017-03-17 12:11:35
Программа кодирования : mkvmerge v8.2.0 ('World of Adventure') 64bit
Библиотека кодирования : libebml v1.3.1 + libmatroska v1.4.2

Видео
Идентификатор : 1
Формат : AVC
Формат/Информация : Advanced Video Codec
Профиль формата : High@L4.1
Параметр CABAC формата : Да
Параметр ReFrames формата : 9 кадров
Идентификатор кодека : V_MPEG4/ISO/AVC
Продолжительность : 1 ч. 38 м.
Битрейт : 4809 Кбит/сек
Ширина : 1280 пикселей
Высота : 544 пикселя
Соотношение сторон : 2,35:1
Режим частоты кадров : Постоянный
Частота кадров : 24,000 кадра/сек
Цветовое пространство : YUV
Субдискретизация насыщенности : 4:2:0
Битовая глубина : 8 бит
Тип развёртки : Прогрессивная
Бит/(Пиксели*Кадры) : 0.288
Размер потока : 3,31 Гбайт (71%)
Библиотека кодирования : x264 core 146 r2538 121396c
Настройки программы : cabac=1 / ref=9 / deblock=1:-3:-2 / analyse=0x3:0x113 / me=umh / subme=11 / psy=1 / psy_rd=1.00:0.15 / mixed_ref=1 / me_range=32 / chroma_me=1 / trellis=2 / 8x8dct=1 / cqm=0 / deadzone=21,11 / fast_pskip=0 / chroma_qp_offset=-3 / threads=6 / lookahead_threads=1 / sliced_threads=0 / nr=0 / decimate=1 / interlaced=0 / bluray_compat=0 / constrained_intra=0 / bframes=11 / b_pyramid=2 / b_adapt=2 / b_bias=0 / direct=1 / weightb=1 / open_gop=0 / weightp=2 / keyint=230 / keyint_min=23 / scenecut=40 / intra_refresh=0 / rc_lookahead=40 / rc=crf / mbtree=0 / crf=20.0 / qcomp=0.60 / qpmin=0 / qpmax=69 / qpstep=4 / vbv_maxrate=62500 / vbv_bufsize=78125 / crf_max=0.0 / nal_hrd=none / filler=0 / ip_ratio=1.40 / pb_ratio=1.30 / aq=1:1.00
Язык : English
Default : Да
Forced : Нет

Аудио #1
Идентификатор : 2
Формат : AC-3
Формат/Информация : Audio Coding 3
Параметр Endianness формата : Big
Идентификатор кодека : A_AC3
Продолжительность : 1 ч. 38 м.
Вид битрейта : Постоянный
Битрейт : 640 Кбит/сек
Каналы : 6 каналов
Расположение каналов : Front: L C R, Side: L R, LFE
Частота : 48,0 КГц
Частота кадров : 31,250 кадров/сек (1536 spf)
Битовая глубина : 16 бит
Метод сжатия : С потерями
Размер потока : 451 Мбайт (9%)
Заголовок : DUB (Blu-Ray CEE)
Язык : Russian
ServiceKind/String : Complete Main
Default : Да
Forced : Нет

Аудио #2
Идентификатор : 3
Формат : AC-3
Формат/Информация : Audio Coding 3
Параметр Endianness формата : Big
Идентификатор кодека : A_AC3
Продолжительность : 1 ч. 37 м.
Вид битрейта : Постоянный
Битрейт : 448 Кбит/сек
Каналы : 6 каналов
Расположение каналов : Front: L C R, Side: L R, LFE
Частота : 48,0 КГц
Частота кадров : 31,250 кадров/сек (1536 spf)
Битовая глубина : 16 бит
Метод сжатия : С потерями
Размер потока : 313 Мбайт (7%)
Заголовок : AVO (Сергей Визгунов)
Язык : Russian
ServiceKind/String : Complete Main
Default : Нет
Forced : Нет

Аудио #3
Идентификатор : 4
Формат : AC-3
Формат/Информация : Audio Coding 3
Параметр Endianness формата : Big
Идентификатор кодека : A_AC3
Продолжительность : 1 ч. 38 м.
Вид битрейта : Постоянный
Битрейт : 448 Кбит/сек
Каналы : 6 каналов
Расположение каналов : Front: L C R, Side: L R, LFE
Частота : 48,0 КГц
Частота кадров : 31,250 кадров/сек (1536 spf)
Битовая глубина : 16 бит
Метод сжатия : С потерями
Размер потока : 316 Мбайт (7%)
Заголовок : AVO (Михаил Чадов)
Язык : Russian
ServiceKind/String : Complete Main
Default : Нет
Forced : Нет

Аудио #4
Идентификатор : 5
Формат : AC-3
Формат/Информация : Audio Coding 3
Параметр Endianness формата : Big
Идентификатор кодека : A_AC3
Продолжительность : 1 ч. 38 м.
Вид битрейта : Постоянный
Битрейт : 448 Кбит/сек
Каналы : 6 каналов
Расположение каналов : Front: L C R, Side: L R, LFE
Частота : 48,0 КГц
Частота кадров : 31,250 кадров/сек (1536 spf)
Битовая глубина : 16 бит
Метод сжатия : С потерями
Размер потока : 316 Мбайт (7%)
Заголовок : original
Язык : English
ServiceKind/String : Complete Main
Default : Нет
Forced : Нет

Текст #1
Идентификатор : 6
Формат : UTF-8
Идентификатор кодека : S_TEXT/UTF8
Идентификатор кодека/Информация : UTF-8 Plain Text
Продолжительность : 1 ч. 30 м.
Битрейт : 51 бит/сек
ElementCount : 685
Размер потока : 34,3 Кбайт (0%)
Заголовок : русские
Язык : Russian
Default : Нет
Forced : Нет

Текст #2
Идентификатор : 7
Формат : UTF-8
Идентификатор кодека : S_TEXT/UTF8
Идентификатор кодека/Информация : UTF-8 Plain Text
Продолжительность : 1 ч. 9 м.
Битрейт : 0 бит/сек
ElementCount : 9
Размер потока : 379 байт (0%)
Заголовок : русские (надписи)
Язык : Russian
Default : Да
Forced : Да

Текст #3
Идентификатор : 8
Формат : UTF-8
Идентификатор кодека : S_TEXT/UTF8
Идентификатор кодека/Информация : UTF-8 Plain Text
Продолжительность : 1 ч. 29 м.
Битрейт : 46 бит/сек
ElementCount : 782
Размер потока : 30,0 Кбайт (0%)
Заголовок : английские (для слабослышащих)
Язык : English
Default : Нет
Forced : Нет

Меню
00:00:00.000 : :Chapter 01
00:06:19.377 : :Chapter 02
00:09:46.167 : :Chapter 03
00:13:52.747 : :Chapter 04
00:17:29.965 : :Chapter 05
00:21:43.342 : :Chapter 06
00:24:27.090 : :Chapter 07
00:31:07.991 : :Chapter 08
00:37:05.096 : :Chapter 09
00:41:02.667 : :Chapter 10
00:44:52.939 : :Chapter 11
00:48:21.273 : :Chapter 12
00:51:47.979 : :Chapter 13
00:54:21.216 : :Chapter 14
00:57:30.321 : :Chapter 15
01:00:43.930 : :Chapter 16
01:04:37.747 : :Chapter 17
01:07:00.433 : :Chapter 18
01:10:07.036 : :Chapter 19
01:14:07.441 : :Chapter 20
01:18:59.651 : :Chapter 21
01:22:01.249 : :Chapter 22
01:25:09.145 : :Chapter 23
01:28:02.943 : :Chapter 24
01:30:47.941 : :Chapter 25
pb.wtf



Скачать Ниндзя-убийца через торрент http://hostpic.gq/img/2017-03/18/nfu0doi5n086svo35xtcgdb28.jpg Скачать фильм Ниндзя-убийца через торрент бесплантно в хорошем качестве Описание: Рейзо — один из самых опасных убийц-ниндзя в мире. Ещё ребёнком его превратили в профессионального убийцу члены клана «Озуну» — ... 9 10 13
Info! Золотая раздача, скачанное не засчитывается.
Торрент: Зарегистрирован [2017-03-18 07:22] · скачан: 497 раз
Статус: √ проверено
Размер: 4.67 GB
Как cкачать? Как скачать Ниндзя-убийца через торрент | qTorrent

% Раздел Тема Автор DL S | L
Фильмы [HD 720p, 1080p] (Хороший звук DUB, MVO) [ 13 GB ] Ниндзя-убийца / Ninja Assassin [2009 BDRip 1080p by msltel] DUB 2 x AVO msltel Скачать
1 | 0

28-11-2019 20:33  

Отключить всю рекламу на сайте

18-03-2017 15:22 Ниндзя-убийца Скачать торрент  

Давно смотрел, нормальный фильмец.pb.wtf



    Дорогой пользователь! Огромная просьба, поблагодарите релизера, оцените раздачу и оставьте свои комментарий, если Вы скачали Ниндзя-убийца через торрент бесплатно! Внесите свою лепту в развитие PiratBit!
    Комментировать посты могут только пользователи прошедшие не сложную регистрацию
    Показать сообщения:    

    Ниндзя-убийца через торрент
    Скачать бесплатно Ниндзя-убийца
    Ниндзя-убийца скачать торрент
    Ниндзя-убийца смотреть онлайн
    Cкачать фильм Ниндзя-убийца бесплатно
    Ниндзя-убийца скачать торрент в хорошем качестве
    Ниндзя-убийца смотреть онлайн бесплатно в хорошем качестве


    Вы не можете начинать темы
    Вы не можете отвечать на сообщения
    Вы не можете редактировать свои сообщения
    Вы не можете удалять свои сообщения
    Вы не можете голосовать в опросах
    Вы не можете прикреплять файлы к сообщениям
    Вы можете скачивать файлы