Доктор Стрэндж

Лицензия

Добыча

MVO

Дом дракона

1 сезон

Тор

Лицензия

Мэверик

Лицензия

Там, где раки поют

MVO

Властелин колец

1 сезон

Ultimate

pack

Рекомендуем

30

Repack

ВАЖНО

ВАЖНО

Ghostwire

RePack

jed

RePack

nioh2

RePack

RDR2

RePack

NEED FOR SPEED™ PAYBACK

RePack

скачать торрент

Кинопоиск HD

Острые козырьки 6 сезон

6 сезон

FAR CRY 6

RePack

скачать торрент

Лицензия

скачать торрент

MVO

1

1 сезон

скачать торрент

1 сезон

скачать торрент

Лицензия

  

Обитель зла: Возмездие / Resident Evil: Retribution (Пол У. С. Андерсон) [2012 г., ужасы, фантастика, боевик, триллер, HDRip, Дубляж Лицензия] от R.G. Resident

Обитель зла: Возмездие через торрент pb.wtf

Размер: 1.46 GB | Добавлен: 6 лет 10 мес. назад | Торрент скачан:146 раз
Смотреть онлайн Обитель зла: Возмездие | Скачать   

28-11-2015 12:32 Обитель зла: Возмездие Скачать торрент  

Обитель зла: Возмездие / Resident Evil: RetributionГод выпуска: 2012
Страна: Германия, Канада, США, Франция
Жанр: ужасы, фантастика, боевик, триллер
Продолжительность: 01:35:37
Перевод: Дубляж | Лицензия
Субтитры: Нет

Режиссер: Пол У. С. Андерсон
Продюссер: Пол У. С. Андерсон, Джереми Болт, Дон Кармоди
Сценарий: Пол У. С. Андерсон

Бюджет: $65 000 000
Премьера в мире: 3 сентября 2012



В ролях: Милла Йовович, Сиенна Гиллори, Йохан Урб, Ли Бинбин, Ариана Энджинир, Мишель Родригес, Борис Коджо, Кевин Дюран, Одед Фер, Колин Сэлмон, Ирина Киреева, Елена Соловьева, Алексей Мясников, Валентина Абрамова, Анна Денисова

Описание: Смертельный T-вирус, созданный в лабораториях корпорации «Амбрелла», продолжает захватывать Землю, превращая мировое население в легионы пожирающих плоть зомби. Последняя надежда человечества Элис внедряется в самое сердце самой тайной исследовательской базы корпорации и узнает еще больше о собственном таинственном прошлом. Не имея путей к отступлению, Элис продолжает искать виновных в глобальной катастрофе. Вызов, который она принимала в Токио, Нью-Йорке, Вашингтоне и даже в Москве, приводит ее в итоге к взрывающему сознание откровению, которое заставит ее переосмыслить все, что она полагала правдой. С помощью новых союзников и старых друзей, Элис будет сражаться за выживание и убегать из враждебного мира. Отсчет времени начат...

Качество: HDRip | BDRip 720p
Формат: AVI
Видео кодек: XviD
Аудио кодек: AC3
Видео: 720x304 (2.37:1), 23.976 fps, XviD build 50 ~1789 kbps avg, 0.34 bit/pixel
Аудио: 48 kHz, AC3 Dolby Digital, 3/2 (L,C,R,l,r) + LFE ch, ~384 kbps



Автор рипа: Dean24
| | R.G. Resident
Общее
Полное имя : D:\Мои документы\Фильмы\Сайт\Resident.Evil.Retribution.HDRip.avi
Формат : AVI
Формат/Информация : Audio Video Interleave
Размер файла : 1,46 Гбайт
Продолжительность : 1 ч. 35 м.
Общий поток : 2183 Кбит/сек
Программа кодирования : VirtualDubMod 1.5.10.3 | www.virtualdub-fr.org || (build 2550/release)
Библиотека кодирования : VirtualDubMod build 2550/release

Видео
Идентификатор : 0
Формат : MPEG-4 Visual
Профиль формата : Advanced [email protected]
Параметр BVOP формата : 3
Параметр QPel формата : Нет
Параметр GMC формата : Без точки перехода
Параметр матрицы формата : Default (H.263)
Идентификатор кодека : XVID
Идентификатор кодека/Подсказка : XviD
Продолжительность : 1 ч. 35 м.
Битрейт : 1790 Кбит/сек
Ширина : 720 пикселей
Высота : 304 пикселя
Соотношение сторон : 2,35:1
Частота кадров : 23,976 кадра/сек
Цветовое пространство : YUV
Субдискретизация насыщенности : 4:2:0
Битовая глубина : 8 бит
Тип развёртки : Прогрессивная
Метод сжатия : С потерями
Бит/(Пиксели*Кадры) : 0.341
Размер потока : 1,20 Гбайт (82%)
Библиотека кодирования : XviD 1.2.1 (UTC 2008-12-04)

Аудио
Идентификатор : 1
Формат : AC-3
Формат/Информация : Audio Coding 3
Расширение режима : CM (complete main)
Параметр Endianness формата : Big
Идентификатор кодека : 2000
Продолжительность : 1 ч. 35 м.
Вид битрейта : Постоянный
Битрейт : 384 Кбит/сек
Каналы : 6 каналов
Расположение каналов : Front: L C R, Side: L R, LFE
Частота : 48,0 КГц
Битовая глубина : 16 бит
Метод сжатия : С потерями
Размер потока : 263 Мбайт (18%)
Выравнивание : Разделение по промежуткам
Продолжительность промежутка : 42 мс. (1,00 видеокадр)
Время предзагрузки промежутка : 500 мс.




Скачать Обитель зла: Возмездие через торрент http://i76.fastpic.ru/big/2015/1128/71/73bd6222afcebd5e86a9b533bf317b71.png Скачать, смотреть онлайн Обитель зла: Возмездие бесплантно в хорошем качестве Описание: Смертельный T-вирус, созданный в лабораториях корпорации «Амбрелла», продолжает захватывать Землю, превращая мировое население в ... 9 10 11
Info! Золотая раздача, скачанное не засчитывается.
Торрент: Зарегистрирован [2015-11-28 12:32] · скачан: 146 раз
Статус: √ проверено
Размер: 1.46 GB
Как cкачать? Как скачать Обитель зла: Возмездие через торрент | UTorrent

28-11-2019 20:33  

Отключить вcю реклaмy на сайте

25-03-2017 19:30 Обитель зла: Возмездие Скачать торрент  

на раздачу кто нибудь станет?



12-04-2020 12:56 Обитель зла: Возмездие Скачать торрент  

пожалуйста втаньте на раздачу.)



    Дорогой пользователь! Огромная просьба, поблагодарите релизера, оцените раздачу и оставьте свои комментарий, если Вы скачали Обитель зла: Возмездие через торрент бесплатно!!
    Комментировать посты могут только пользователи прошедшие не сложную регистрацию
    Показать сообщения:    


    Обитель зла: Возмездие через торрент
    Скачать бесплатно Обитель зла: Возмездие
    Обитель зла: Возмездие скачать торрент
    Обитель зла: Возмездие смотреть онлайн
    Cкачать фильм Обитель зла: Возмездие бесплатно
    Обитель зла: Возмездие скачать торрент в хорошем качестве
    Обитель зла: Возмездие смотреть онлайн бесплатно в хорошем качестве
    Вы не можете начинать темы
    Вы не можете отвечать на сообщения
    Вы не можете редактировать свои сообщения
    Вы не можете удалять свои сообщения
    Вы не можете голосовать в опросах
    Вы не можете прикреплять файлы к сообщениям
    Вы можете скачивать файлы