Ссылка на приватное зеркало нашего сайта всего за 1$. Внимание количество ограничено!!!

2 сезон

iTunes

1 сезон

1

2 сезон

2 сезон

iTunes

1 сезон

RePack

30

Новинка

ВАЖНО

ИГРА 18+

pack

RePack

MK11
pack

Забери бонус

RePack

jed

!!Акция!!

Alien_Rage

RePack

fifa19

RePack

Assassins Creed: Odyssey

RePack

NEED FOR SPEED™ PAYBACK

4 сезон

9 сезон

Бесстыжие 9 сезон

Все сериалы

все сериалы на PB.wtf

RePack

FAR CRY 5
  

Трансформация / Rupture (Стивен Шейнберг) [2016 г., ужасы, фантастика, триллер, BDRip 1080p, Дубляж "iTunes"] pb.wtf

Трансформация через торрент pb.wtf

Размер: 14.07 GB | Добавлен: 3 года 7 мес. назад | Торрент скачан:255 раз
Скачать  

05-04-2017 05:18 Трансформация Скачать торрент  

Трансформация / Rupture

Страна: США Канада

Производство: Tango Pictures, BondIt, Ambi Pictures

Год выпуска: 2016

Жанр: ужасы, фантастика, триллер

Продолжительность: 01:41:15

Режиссер: Стивен Шейнберг

Авторы сценария: Брайан Нельсон, Стивен Шейнберг

В ролях: Нуми Рапас, Петер Стормаре, Керри Бише, Майкл Чиклис, Лесли Мэнвилл, Пол Попович, Эри Миллен, Джоэль Лабелль, Перси Хайнс Уайт

Описание: Рене живёт с 12-летним сыном в тихом районе на окраине города. Она страшно боится пауков. Однажды её похищают незнакомцы, и женщина приходит в себя в лаборатории, где узнает, что она — уникальный обладатель генетической аномалии, которая может помочь ей трансформироваться в иную сущность, в монстра...

rating

Перевод: Профессиональный (полное дублирование) | iTunes

Субтитры: нет
Качество: BDRip 1080p

Формат: МКV

Видео кодек: AVC

Аудио кодек: АС3 | DTS

Видео: 1920x804 (2.40:1), 23.976 fps, MPEG-4 AVC ~17.6 Мbps avg

Аудио №1: 48.0 kHz, AC3 Dolby Digital, 3/2 (L,C,R,l,r) + LFE ch, ~384 kbps | RUS / DUB / iTunes

Аудио №2: 48.0 kHz, AC3 Dolby Digital, 3/2 (L,C,R,l,r) + LFE ch, ~384 kbps | UKR / MVO / iTunes

Аудио №3: 48.0 kHz, Digital Theater Systems, 3/2 (L,C,R,l,r) + LFE ch, ~1509 kbps / 16-bit | ENG

Формат субтитров: UTF-8 Plain Text

Дата премьеры (мир): 15 июля 2016

Дата премьеры (РФ): 2 февраля 2017, «MEGOGO Distribution»

Уникальный идентификатор : 239412470813572241999643790173581874992 (0xB41D2A2727B48C0F9462B6934E181730)

Полное имя : Rupture.2016.BDRip.1080p.mkv

Формат : Matroska

Версия формата : Version 4 / Version 2

Размер файла : 14,1 Гбайт

Продолжительность : 1 ч. 41 м.

Общий поток : 19,9 Мбит/сек

Дата кодирования : UTC 2017-04-03 17:34:07

Программа кодирования : mkvmerge v10.0.0 ('To Drown In You') 64bit

Библиотека кодирования : libebml v1.3.4 + libmatroska v1.4.5

Видео

Идентификатор : 1

Формат : AVC

Формат/Информация : Advanced Video Codec

Профиль формата : High@L4.1

Параметр CABAC формата : Да

Параметр ReFrames формата : 5 кадров

Идентификатор кодека : V_MPEG4/ISO/AVC

Продолжительность : 1 ч. 41 м.

Битрейт : 17,6 Мбит/сек

Ширина : 1920 пикселей

Высота : 804 пикселя

Соотношение сторон : 2,40:1

Режим частоты кадров : Постоянный

Частота кадров : 23,976 (24000/1001) кадра/сек

Цветовое пространство : YUV

Субдискретизация насыщенности : 4:2:0

Битовая глубина : 8 бит

Тип развёртки : Прогрессивная

Бит/(Пиксели*Кадры) : 0.476

Размер потока : 12,5 Гбайт (89%)

Библиотека кодирования : x264 core 148 r2744 b97ae06

Настройки программы : cabac=1 / ref=5 / deblock=1:-3:-3 / analyse=0x3:0x113 / me=umh / subme=10 / psy=1 / psy_rd=1.03:0.00 / mixed_ref=1 / me_range=32 / chroma_me=1 / trellis=2 / 8x8dct=1 / cqm=1 / deadzone=21,11 / fast_pskip=0 / chroma_qp_offset=-1 / threads=12 / lookahead_threads=2 / sliced_threads=0 / nr=0 / decimate=1 / interlaced=0 / bluray_compat=0 / constrained_intra=0 / bframes=8 / b_pyramid=2 / b_adapt=2 / b_bias=0 / direct=3 / weightb=1 / open_gop=0 / weightp=2 / keyint=230 / keyint_min=23 / scenecut=40 / intra_refresh=0 / rc_lookahead=40 / rc=crf / mbtree=0 / crf=14.6 / qcomp=0.64 / qpmin=10 / qpmax=69 / qpstep=4 / vbv_maxrate=62500 / vbv_bufsize=78125 / crf_max=0.0 / nal_hrd=none / filler=0 / ip_ratio=1.30 / pb_ratio=1.20 / aq=1:0.76

Язык : English

Default : Да

Forced : Нет

Аудио #1

Идентификатор : 2

Формат : AC-3

Формат/Информация : Audio Coding 3

Расширение режима : CM (complete main)

Параметр Endianness формата : Big

Идентификатор кодека : A_AC3

Продолжительность : 1 ч. 41 м.

Вид битрейта : Постоянный

Битрейт : 384 Кбит/сек

Каналы : 6 каналов

Расположение каналов : Front: L C R, Side: L R, LFE

Частота : 48,0 КГц

Частота кадров : 31,250 кадров/сек (1536 spf)

Метод сжатия : С потерями

Размер потока : 278 Мбайт (2%)

Заголовок : iTunes

Язык : Russian

Default : Да

Forced : Нет

Аудио #2

Идентификатор : 3

Формат : AC-3

Формат/Информация : Audio Coding 3

Расширение режима : CM (complete main)

Параметр Endianness формата : Big

Идентификатор кодека : A_AC3

Продолжительность : 1 ч. 41 м.

Вид битрейта : Постоянный

Битрейт : 384 Кбит/сек

Каналы : 6 каналов

Расположение каналов : Front: L C R, Side: L R, LFE

Частота : 48,0 КГц

Частота кадров : 31,250 кадров/сек (1536 spf)

Метод сжатия : С потерями

Размер потока : 278 Мбайт (2%)

Заголовок : iTunes

Язык : Ukrainian

Default : Нет

Forced : Нет

Аудио #3

Идентификатор : 4

Формат : DTS

Формат/Информация : Digital Theater Systems

Режим : 16

Параметр Endianness формата : Big

Идентификатор кодека : A_DTS

Продолжительность : 1 ч. 41 м.

Вид битрейта : Постоянный

Битрейт : 1509 Кбит/сек

Каналы : 6 каналов

Расположение каналов : Front: L C R, Side: L R, LFE

Частота : 48,0 КГц

Частота кадров : 93,750 кадра/сек (512 spf)

Битовая глубина : 16 бит

Метод сжатия : С потерями

Размер потока : 1,07 Гбайт (8%)

Язык : English

Default : Нет

Forced : Нет

Меню

00:00:00.000 : en:Chapter 1

00:15:38.563 : en:Chapter 2

00:39:01.506 : en:Chapter 3

01:00:30.585 : en:Chapter 4

01:18:13.022 : en:Chapter 5

01:34:14.315 : en:Chapter 6
Новость- жмиpb.wtf



Скачать Трансформация через торрент http://img11.lostpic.net/2017/04/04/c3b3c8845537941a51f0ffbc4a7417d3.png Скачать фильм Трансформация через торрент бесплантно в хорошем качестве Описание: Рене живёт с 12-летним сыном в тихом районе на окраине города. Она страшно боится пауков. Однажды её похищают незнакомцы, и ... 8.4 10 9
Торрент: Зарегистрирован [2017-04-05 05:18] · скачан: 255 раз
Статус: √ проверено
Размер: 14.07 GB
Как cкачать? Как скачать Трансформация через торрент | qTorrent

% Раздел Тема Автор DL S | L
Фильмы 2016 [DVDrip, WEB-DLRip, HDrip] (DUB, MVO) [ 2.05 GB ] Трансформация / Rupture [2016 HDRip ""] coc900 Скачать
1 | 0
Фильмы 2016 [DVDrip, WEB-DLRip, HDrip] (DUB, MVO) [ 1.42 GB ] Трансформация / Rupture [2016 BDRip] - Twi7ter Скачать
1 | 0
Фильмы 2016 [DVDrip, WEB-DLRip, HDrip] (DUB, MVO) [ 1.42 GB ] Трансформация / Rupture [2016 BDRip] bober100 Скачать
1 | 0

28-11-2019 20:33  

Отключить всю рекламу на сайте

10-04-2017 12:49 Трансформация Скачать торрент  

так себе фильм, время если только убитьpb.wtf



    Дорогой пользователь! Огромная просьба, поблагодарите релизера, оцените раздачу и оставьте свои комментарий, если Вы скачали Трансформация через торрент бесплатно! Внесите свою лепту в развитие PiratBit!
    Комментировать посты могут только пользователи прошедшие не сложную регистрацию
    Показать сообщения:    

    Трансформация через торрент
    Скачать бесплатно Трансформация
    Трансформация скачать торрент
    Трансформация смотреть онлайн
    Cкачать фильм Трансформация бесплатно
    Трансформация скачать торрент в хорошем качестве
    Трансформация смотреть онлайн бесплатно в хорошем качестве


    Вы не можете начинать темы
    Вы не можете отвечать на сообщения
    Вы не можете редактировать свои сообщения
    Вы не можете удалять свои сообщения
    Вы не можете голосовать в опросах
    Вы не можете прикреплять файлы к сообщениям
    Вы можете скачивать файлы