Всегда рабочее зеркало без VPN и Proxy просто перед .vidak.icu напиши любое слово или цифру, Пример http://8bbk.vidak.icu

MVO

MVO

1 сезон

1

1 сезон

iTunes

1 сезон

13

1 сезон

Deluxe

pack

Рекомендуем

Repack

30

ВАЖНО

RePack

MK11

RePack

jed

RePack

fifa19

RePack

RDR2

RePack

NEED FOR SPEED™ PAYBACK

Кинопоиск HD

6 сезон

 Острые козырьки 6 сезон

Все сериалы

все сериалы на PB.wtf

RePack

FAR CRY 5
  
Magnet ссылка

Везучий случай (Роман Самгин) [2016, комедия, WEB-DLRip-AVC] оригинал [iTunes] От R.G.Resident pb.wtf

Везучий случай через торрент pb.wtf

Размер: 1.75 GB | Добавлен: 5 лет 4 мес. назад | Торрент скачан:1298 раз
Смотреть онлайн Везучий случай | Скачать    Ребята, помогите собрать деньги на оплату серверов!!!

06-04-2017 15:34 Везучий случай Скачать торрент  

Везучий случай
««Не жили богато - нефиг начинать!»»


Год выпуска: 2016
Страна: Россия
Жанр: комедия
Продолжительность: 01:32:52
Перевод: оригинал [iTunes]
Режиссер: Роман Самгин
В ролях:

Андрей Рожков (Валерка), Дмитрий Брекоткин, Вячеслав Мясников, Михаил Трухин, Алексей Маклаков, Олеся Железняк, Ольга Медынич, Ольга Дибцева, Валентина Мазунина, Юлия Михалкова, Андрей Юртаев (сын Василича, хипстер), Татьяна Кравченко (бывшая жена Василича)
Описание:
По сюжету фильма, Валерка с друзьями обнаруживает у себя лотерейный билет, который даже не помнит, кто и как покупал. А билет оказывается выигрышный - 43 миллиона рублей! Целое состояние для скромного Екатеринбурга! Да чего уж там, для целого отдела продавцов - Валерки и его друзей. Выигрыш решили делить на всех, устроили гулянку, настроили планов... но быстро поняли, что не видать им денег, если о них узнают жены. Мужики выкрадывают свои паспорта и сбегают из дома в Москву. А жены следуют за ними по пятам.

Качество: WEB-DLRip-AVC Rip by
Формат: MKV
Видео: AVC, 1024x428 (2.40:1), 2500 kbps, 24 fps, 0,238 bpp
Аудио: AC3 / 2.0 / 48 kHz / 192 kbps /

General
Unique ID : 250260470817085294764219241779366418463 (0xBC4669D8CBFDB8708E439DC2323F581F)
Complete name : E:\VEZU4IJ_SLU4AJ_2016.WEB-DLRip-AVC.by.White Smoke.R.G.Resident.mkv
Format : Matroska
Format version : Version 4 / Version 2
File size : 1.75 GiB
Duration : 1 h 32 min
Overall bit rate : 2 693 kb/s
Movie name : VEZU4IJ_SLU4AJ_2016.WEB-DLRip-AVC.by.White Smoke.R.G.Resident.mkv
Encoded date : UTC 2017-04-06 15:16:54
Writing application : mkvmerge v6.8.0 ('Theme for Great Cities') 64bit built on Mar 2 2014 21:34:26
Writing library : libebml v1.3.0 + libmatroska v1.4.1

Video
ID : 1
Format : AVC
Format/Info : Advanced Video Codec
Format profile : [email protected]
Format settings, CABAC : Yes
Format settings, ReFrames : 12 frames
Codec ID : V_MPEG4/ISO/AVC
Duration : 1 h 32 min
Bit rate : 2 500 kb/s
Width : 1 024 pixels
Height : 428 pixels
Display aspect ratio : 2.40:1
Frame rate mode : Constant
Frame rate : 24.000 FPS
Color space : YUV
Chroma subsampling : 4:2:0
Bit depth : 8 bits
Scan type : Progressive
Bits/(Pixel*Frame) : 0.238
Stream size : 1.59 GiB (91%)
Writing library : x264 core 148 r2638 7599210
Encoding settings : cabac=1 / ref=12 / deblock=1:-2:-1 / analyse=0x3:0x113 / me=umh / subme=11 / psy=1 / psy_rd=0.00:0.15 / mixed_ref=1 / me_range=32 / chroma_me=1 / trellis=2 / 8x8dct=1 / cqm=0 / deadzone=21,11 / fast_pskip=0 / chroma_qp_offset=-3 / threads=6 / lookahead_threads=1 / sliced_threads=0 / nr=0 / decimate=0 / interlaced=0 / bluray_compat=0 / constrained_intra=0 / bframes=12 / b_pyramid=2 / b_adapt=2 / b_bias=0 / direct=1 / weightb=0 / open_gop=0 / weightp=2 / keyint=240 / keyint_min=24 / scenecut=40 / intra_refresh=0 / rc_lookahead=40 / rc=2pass / mbtree=1 / bitrate=2500 / ratetol=1.0 / qcomp=0.70 / qpmin=0 / qpmax=69 / qpstep=4 / cplxblur=20.0 / qblur=0.5 / vbv_maxrate=50000 / vbv_bufsize=65500 / nal_hrd=none / filler=0 / ip_ratio=1.40 / aq=1:1.00
Default : Yes
Forced : No

Audio
ID : 2
Format : AC-3
Format/Info : Audio Coding 3
Mode extension : CM (complete main)
Format settings, Endianness : Big
Codec ID : A_AC3
Duration : 1 h 32 min
Bit rate mode : Constant
Bit rate : 192 kb/s
Channel(s) : 2 channels
Channel positions : Front: L R
Sampling rate : 48.0 kHz
Frame rate : 31.250 FPS (1536 spf)
Compression mode : Lossy
Stream size : 128 MiB (7%)
Default : Yes
Forced : No

© Оформление by White Smoke pb.wtf



Скачать Везучий случай через торрент http://i91.fastpic.ru/big/2017/0406/c6/1ead46502538698f425b491b36cefec6.jpg Скачать, смотреть онлайн Везучий случай бесплантно в хорошем качестве Описание: По сюжету фильма, Валерка с друзьями обнаруживает у себя лотерейный билет, который даже не помнит, кто и как покупал. А билет ... 8.9 10 36
Info! Золотая раздача, скачанное не засчитывается.
Торрент: Зарегистрирован [2017-04-06 15:38] · скачан: 1 298 раз
Статус: T временная
Размер: 1.75 GB
Как cкачать? Как скачать Везучий случай через торрент | UTorrent

28-11-2019 20:33  

Отключить вcю реклaмy на сайте

06-04-2017 16:22 Везучий случай Скачать торрент  

Есть люди которые такое смотрят????pb.wtf
KWhite Smoke писал(а):

если такое идет в кино значит есть



06-04-2017 17:12 Везучий случай Скачать торрент  

olgertson писал(а):

Есть люди которые такое смотрят????

раз выложили значит смотрят)))pb.wtf



06-04-2017 17:56 Везучий случай Скачать торрент  

Раз скачивают, значит смотрят pb.wtf



07-04-2017 00:06 Везучий случай Скачать торрент  

раз смотрят, значит смотрят))) но не я. и не мой сосед. и не те, кого я знаю. но кто-то явно смотрит)pb.wtf



07-04-2017 11:14 Везучий случай Скачать торрент  

есть люди которые пишут pb.wtf



07-04-2017 21:09 Везучий случай Скачать торрент  

пельмени в бегах-триллер с элементами хорораpb.wtf



08-04-2017 11:52 Везучий случай Скачать торрент  

Это ужас. Столько известных интересных талантливых людей искупались в озере с фекалиями. Что их побудило - непонятно. УЖАС.
P.S. Пельменей и всех там снявшихся люблю и уважаю.pb.wtf



08-04-2017 13:00 Везучий случай Скачать торрент  

начало и середина фильма вполне интересна и смешна, но вот концовка это ужас полныйpb.wtf



    Дорогой пользователь! Огромная просьба, поблагодарите релизера, оцените раздачу и оставьте свои комментарий, если Вы скачали Везучий случай через торрент бесплатно!
    Комментировать посты могут только пользователи прошедшие не сложную регистрацию
    Показать сообщения:    

    Везучий случай через торрент
    Скачать бесплатно Везучий случай
    Везучий случай скачать торрент
    Везучий случай смотреть онлайн
    Cкачать фильм Везучий случай бесплатно
    Везучий случай скачать торрент в хорошем качестве
    Везучий случай смотреть онлайн бесплатно в хорошем качестве


    Вы не можете начинать темы
    Вы не можете отвечать на сообщения
    Вы не можете редактировать свои сообщения
    Вы не можете удалять свои сообщения
    Вы не можете голосовать в опросах
    Вы не можете прикреплять файлы к сообщениям
    Вы можете скачивать файлы