Лицензия

MVO

1

1 сезон

Лицензия

Лицензия

13

MVO

1 сезон

Deluxe Edition

pack

Рекомендуем

30

Repack

ВАЖНО

ВАЖНО

Ghostwire

RePack

jed

RePack

fifa19

RePack

RDR2

RePack

NEED FOR SPEED™ PAYBACK

RePack

Кинопоиск HD

 Острые козырьки 6 сезон

6 сезон

FAR CRY 6

RePack

Лицензия

MVO

1

1 сезон

1 сезон

Лицензия

  

Плохой кот Шерафеттин / Kötü Kedi Serafettin / Bad Cat (Мехметt Куртулас, Айсо Юнал) [2016, Анимация, боевик, комедия, HDRip-AVC] [DVO] (datynet & Galina Vasyukova)

Плохой кот Шерафеттин через торрент pb.wtf

Размер: 1.26 GB | Добавлен: 1 год 2 мес. назад | Торрент скачан:26 раз
Смотреть онлайн Плохой кот Шерафеттин | Скачать   

05-05-2017 19:27 Плохой кот Шерафеттин Скачать торрент  

Плохой кот Шерафеттин / Kötü Kedi Serafettin / Bad Cat Год выпуска: 2016
Страна: Турция, Anima Istanbul, Kare Kare Film Yapim
Жанр: Анимация, боевик, комедия
Продолжительность: 01:21:55
Перевод: Любительский (двухголосый закадровый) datynet & Galina Vasyukova; перевод: Куценко
Cубтитры: нет

Режиссер: Мехметt Куртулас / Mehmet Kurtulus; Айсо Юнал / Ayse Unal

В ролях: Уур Юджел, Демет Эвгар, Окан Ялабык, Гувен Кирак, Гёкче Озиоль, Ахмет Мюмтаз Тайлан, Йекта Копан, Айсен Груда, Джезми Баскин

Описание: Сюжет мультфильма взят из популярных турецких комиксов конца 20 века. Главный герой, кот Шерафеттин, не очень похож на обычных любимчиков мультяшек. Этот котик очень смелый и ироничный, веселый и нелепый. Он просто обожает влипать в различные ситуации, а потом выпутываться из них. Находить проблемы для Шерафеттина – это любимое занятие. Причем он может создать неприятности, как для себя, так и для окружающих. Шерафеттин – самостоятельный кот, поэтому старается решить свои проблемы сам, часто из этого вырастает лишь еще больше неприятностей.

rating



Качество видео: HDRip-AVC
Формат видео: MKV
Видео: 720x300 (2.40:1), 25fps, MPEG4 Video (H264) ~ 2 000 Kbps avg, 0.370 bit/pixel
Аудио: 48 kHz, MPEG Layer 3, 2 ch, ~192.00 kbps avg
General
Unique ID : 191854161280071219859625956301197672206 (0x9055C47567B0ACFF899EA62C4839FF0E)
Complete name : E:\Kotu.Kedi.Sefarettin.2016.DVDRip\Kotu.Kedi.Sefarettin.2016.mkv
Format : Matroska
Format version : Version 4 / Version 2
File size : 1.26 GiB
Duration : 1h 21mn
Overall bit rate : 2 193 Kbps
Movie name : Kotu.Kedi.Sefarettin.2016.DVDRip.x264.DD5.1.AC-3-SDDS
Encoded date : UTC 2017-05-05 10:40:06
Writing application : mkvmerge v9.6.0 ('Slave To Your Mind') 64bit
Writing library : libebml v1.3.4 + libmatroska v1.4.5

Video
ID : 1
Format : AVC
Format/Info : Advanced Video Codec
Format profile : [email protected]
Format settings, CABAC : Yes
Format settings, ReFrames : 2 frames
Format settings, GOP : M=3, N=24
Codec ID : V_MPEG4/ISO/AVC
Duration : 1h 21mn
Bit rate : 2 000 Kbps
Width : 720 pixels
Height : 300 pixels
Display aspect ratio : 2.40:1
Frame rate mode : Constant
Frame rate : 25.000 fps
Color space : YUV
Chroma subsampling : 4:2:0
Bit depth : 8 bits
Scan type : Progressive
Bits/(Pixel*Frame) : 0.370
Stream size : 1.12 GiB (89%)
Default : Yes
Forced : No

Audio
ID : 2
Format : MPEG Audio
Format version : Version 1
Format profile : Layer 3
Codec ID : A_MPEG/L3
Codec ID/Hint : MP3
Duration : 1h 21mn
Bit rate mode : Constant
Bit rate : 192 Kbps
Channel(s) : 2 channels
Sampling rate : 48.0 KHz
Compression mode : Lossy
Stream size : 113 MiB (9%)
Default : Yes
Forced : No
скриншот   скриншот   скриншот  



Скачать Плохой кот Шерафеттин через торрент http://s019.radikal.ru/i617/1705/78/5a1963119a5c.jpg Скачать, смотреть онлайн Плохой кот Шерафеттин бесплантно в хорошем качестве Описание: Сюжет мультфильма взят из популярных турецких комиксов конца 20 века. Главный герой, кот Шерафеттин, не очень похож на обычных ... 8.7 10 14
Торрент: Зарегистрирован [2021-07-27 18:46] · скачан: 26 раз
Статус: T временная
Размер: 1.26 GB
Как cкачать? Как скачать Плохой кот Шерафеттин через торрент | UTorrent

% Раздел Тема Автор DL S | L
T Релизы по Парсеру [Игры, Сериалы и Фильмы и другое...] [ 17.3 GB ] Плохой кот Шерафеттин / Kötü Kedi Serafettin | | 1080p killermax2013 Скачать
1 | 0



Последний раз редактировалось: killermax2013 (2021-07-27 18:50), всего редактировалось 3 раз(а)

28-11-2019 20:33  

Отключить вcю реклaмy на сайте

05-05-2017 19:28 Плохой кот Шерафеттин Скачать торрент  

18+ !!!



06-05-2017 07:20 Плохой кот Шерафеттин Скачать торрент  

Дня доброго. Детям можно смотреть?



06-05-2017 08:23 Плохой кот Шерафеттин Скачать торрент  

Мульт угарный! Только для взрослых.



06-05-2017 08:44 Плохой кот Шерафеттин Скачать торрент  

him007 писал(а):

Дня доброго. Детям можно смотреть?

какие дети мульт для взрослых !



    Дорогой пользователь! Огромная просьба, поблагодарите релизера, оцените раздачу и оставьте свои комментарий, если Вы скачали Плохой кот Шерафеттин через торрент бесплатно!!
    Комментировать посты могут только пользователи прошедшие не сложную регистрацию
    Показать сообщения:    


    Плохой кот Шерафеттин через торрент
    Скачать бесплатно Плохой кот Шерафеттин
    Плохой кот Шерафеттин скачать торрент
    Плохой кот Шерафеттин смотреть онлайн
    Cкачать фильм Плохой кот Шерафеттин бесплатно
    Плохой кот Шерафеттин скачать торрент в хорошем качестве
    Плохой кот Шерафеттин смотреть онлайн бесплатно в хорошем качестве
    Вы не можете начинать темы
    Вы не можете отвечать на сообщения
    Вы не можете редактировать свои сообщения
    Вы не можете удалять свои сообщения
    Вы не можете голосовать в опросах
    Вы не можете прикреплять файлы к сообщениям
    Вы можете скачивать файлы