Мега распродажа FORZA HORIZON 4 ULTIMATE+ВСЕ DLC+ОНЛАЙН всего за 499р. 349 руб. (супер цена). Внимание количество ограничено!!!

Лицензия

30

iTunes

мы

iTunes

1

1 сезон

Чернобыль

1 сезон

Ральф против интернета

MVO

Покемон. Детектив Пикачу

8 сезон

Игра престолов

iTunes

1+1

ИГРА 18+

pack

ВАЖНО

!!Акция!!

Alien_RageХит недели

RePack

Resident Evil 21
pack

RePack

Metro:Exodus

!!Акция!!

Alien_Rage

RePack

fifa19

RePack

Assassins Creed: Odyssey

RePack

NEED FOR SPEED™ PAYBACK

3 сезон

9 сезон

Бесстыжие 9 сезон

Все сериалы

все сериалы на PB.wtf

RePack

FAR CRY 5
Ребята, катастрофически не хватает 2730р. для оплаты серверов за МАЙ (всвязи с блокировками трафик упал в 3 раза), 1-2р., выручайте.
  

Проект Лазарь / Proyecto Lazaro [2017, Фантастика, драма, BDRip-AVC] [VO] (BadBajo) от ExKinoRay pb.wtf

Проект Лазарь через торрент pb.wtf

Раздают: 1 [ 0 KB/s ]
Размер: 2.26 GB | Добавлен: 2 года 1 мес. назад | Торрент скачан:526 раз
Скачать  

06-05-2017 11:59 Проект Лазарь Скачать торрент  

Информация о фильме
Название: Проект Лазарь
Оригинальное название: Proyecto Lazaro (Realive)
Год выпуска: 2016
Жанр: Фантастика, драма
Выпущено: Бельгия, Франция, Испания, Arcadia Motion Pictures, Achaman Films AIE, Canal+ España
Продолжительность: 01:47:15
Озвучивание: Любительское (одноголосое) [BadBajo]
Режиссер: Матео Хиль
В ролях: Том Хьюз, Шарлотта Ле Бон, Уна Чаплин, Бэрри Уорд, Хулио Перильян, Рафаэль Аранда, Бруно Севилья, Дэниэл Хорват, Алекс Хафнер, Годелив Ван ден Брандт

Описание:
Научно-фантастическая драма о первом человеке, заморозившем свое тело, чтобы избежать смерти. Им стал молодой и амбициозный Марк, не пожелавший мириться с безнадежным диагнозом. Но его воскрешение спустя 70 лет оказывается совсем не таким, как он рассчитывал.


rating

Файл
Качество: BDRip-AVC
Видео: MPEG-4 AVC, 1024x428 (2.40:1), ~ 2120 kbps avg, 24.000 FPS, 0.202 bit/pixel
Аудио1: AC-3, 48.0 KHz, 5.1 ch, 448 Kbps, CBR (Russian)
Аудио2: AC-3, 48.0 KHz, 5.1 ch, 448 Kbps, CBR (English)

Без какой-либо рекламы
http://sendfile.su/1332161
General
Unique ID : 236795873505191586805069744821557531214 (0xB22539F203B5A21F94C19E7BB090124E)
Complete name : D:\Realive.2016.AVO.BadBajo.BDRip.AVC.ExKinoRay.mkv
Format : Matroska
Format version : Version 2
File size : 2.26 GiB
Duration : 1 h 47 min
Overall bit rate : 3 015 kb/s
Movie name : Проект Лазарь 2016 from ExKinoRay
Encoded date : UTC 2017-05-06 09:56:52
Writing application : mkvmerge v5.8.0 ('No Sleep / Pillow') built on Sep 2 2012 15:37:04
Writing library : libebml v1.2.3 + libmatroska v1.3.0

Video
ID : 1
Format : AVC
Format/Info : Advanced Video Codec
Format profile : High@L4.1
Format settings, CABAC : Yes
Format settings, ReFrames : 13 frames
Codec ID : V_MPEG4/ISO/AVC
Duration : 1 h 47 min
Bit rate : 2 120 kb/s
Width : 1 024 pixels
Height : 428 pixels
Display aspect ratio : 2.40:1
Frame rate mode : Constant
Frame rate : 24.000 FPS
Color space : YUV
Chroma subsampling : 4:2:0
Bit depth : 8 bits
Scan type : Progressive
Bits/(Pixel*Frame) : 0.202
Stream size : 1.54 GiB (68%)
Title : Enigma
Writing library : x264 core 144 r2525 40bb568
Encoding settings : cabac=1 / ref=13 / deblock=1:-3:-3 / analyse=0x3:0x113 / me=umh / subme=10 / psy=1 / psy_rd=1.00:0.00 / mixed_ref=1 / me_range=32 / chroma_me=1 / trellis=2 / 8x8dct=1 / cqm=0 / deadzone=21,11 / fast_pskip=1 / chroma_qp_offset=-2 / threads=12 / lookahead_threads=3 / sliced_threads=0 / nr=0 / decimate=0 / interlaced=0 / bluray_compat=0 / constrained_intra=0 / bframes=12 / b_pyramid=2 / b_adapt=2 / b_bias=0 / direct=3 / weightb=1 / open_gop=0 / weightp=2 / keyint=240 / keyint_min=24 / scenecut=40 / intra_refresh=0 / rc_lookahead=40 / rc=2pass / mbtree=0 / bitrate=2120 / ratetol=1.0 / qcomp=0.63 / qpmin=0 / qpmax=51 / qpstep=4 / cplxblur=20.0 / qblur=0.5 / vbv_maxrate=50000 / vbv_bufsize=62500 / nal_hrd=none / filler=0 / ip_ratio=1.40 / pb_ratio=1.30 / aq=1:0.80
Language : English
Default : Yes
Forced : No
Color range : Limited
Color primaries : BT.709
Transfer characteristics : BT.709
Matrix coefficients : BT.709

Audio #1
ID : 2
Format : AC-3
Format/Info : Audio Coding 3
Mode extension : CM (complete main)
Format settings, Endianness : Big
Codec ID : A_AC3
Duration : 1 h 47 min
Bit rate mode : Constant
Bit rate : 448 kb/s
Channel(s) : 6 channels
Channel positions : Front: L C R, Side: L R, LFE
Sampling rate : 48.0 kHz
Frame rate : 31.250 FPS (1536 spf)
Compression mode : Lossy
Stream size : 344 MiB (15%)
Title : AVO (BadBajo)
Language : Russian
Default : Yes
Forced : No

Audio #2
ID : 3
Format : AC-3
Format/Info : Audio Coding 3
Mode extension : CM (complete main)
Format settings, Endianness : Big
Codec ID : A_AC3
Duration : 1 h 47 min
Bit rate mode : Constant
Bit rate : 448 kb/s
Channel(s) : 6 channels
Channel positions : Front: L C R, Side: L R, LFE
Sampling rate : 48.0 kHz
Frame rate : 31.250 FPS (1536 spf)
Compression mode : Lossy
Stream size : 344 MiB (15%)
Language : English
Default : No
Forced : No

Menu
00:00:00.000 : en:Chapter 1
00:13:27.791 : en:Chapter 2
00:26:19.750 : en:Chapter 3
00:38:56.625 : en:Chapter 4
00:51:34.791 : en:Chapter 5
01:05:01.041 : en:Chapter 6
01:15:54.583 : en:Chapter 7
01:27:01.916 : en:Chapter 8
Релиз от:

Автор релиза: pb.wtf



Скачать Проект Лазарь через торрент http://lostpix.com/img/2017-05/06/c08o4zx9f4omuxrcldr8kq3kb.jpg Скачать фильм Проект Лазарь через торрент бесплантно в хорошем качестве Описание: Научно-фантастическая драма о первом человеке, заморозившем свое тело, чтобы избежать смерти. Им стал молодой и амбициозный ... 8.8 10 14
Info! Золотая раздача, скачанное не засчитывается.
Торрент: Зарегистрирован [2017-05-06 11:59] · скачан: 526 раз
Статус: T временная
Размер: 2.26 GB
Как cкачать? Как скачать Проект Лазарь через торрент | qTorrent

% Раздел Тема Автор DL S | L
T Фильмы 2017 (Звук TS, Cam, VO, DVO) [ 1.44 GB ] Проект Лазарь / Proyecto Lazaro [2017 BDRip] [VO] от ExKinoRay Enigma2010 Скачать
1 | 0


>> Регистрируемся здесь <<






Отзывы и комментарии о схеме читаем и пишем здесь: ---> Отзывы и комментарии о схеме

Новые благодарочки в телеграм довольных пользователей:
скриншот   скриншот   скриншот   скриншот   скриншот

08-05-2017 07:56 Проект Лазарь Скачать торрент  

Кто посмотрел, отпишитесь как фильм.pb.wtf



11-05-2017 15:25 Проект Лазарь Скачать торрент  

Нудно и не интересно.pb.wtf



    Дорогой пользователь! Огромная просьба, поблагодарите релизера, оцените раздачу и оставьте свои комментарий, если Вы скачали Проект Лазарь через торрент бесплатно! Внесите свою лепту в развитие PiratBit!
    Комментировать посты могут только пользователи прошедшие не сложную регистрацию
    Показать сообщения:    

    Проект Лазарь через торрент
    Скачать бесплатно Проект Лазарь
    Проект Лазарь скачать торрент
    Проект Лазарь смотреть онлайн
    Cкачать фильм Проект Лазарь бесплатно
    Проект Лазарь скачать торрент в хорошем качестве
    Проект Лазарь смотреть онлайн бесплатно в хорошем качестве


    Вы не можете начинать темы
    Вы не можете отвечать на сообщения
    Вы не можете редактировать свои сообщения
    Вы не можете удалять свои сообщения
    Вы не можете голосовать в опросах
    Вы не можете прикреплять файлы к сообщениям
    Вы можете скачивать файлы