Ссылка на приватное зеркало нашего сайта всего за 1$. Внимание количество ограничено!!!

2 сезон

iTunes

1 сезон

1

2 сезон

2 сезон

iTunes

1 сезон

RePack

30

Ultimate

ВАЖНО

ИГРА 18+

pack

RePack

MK11
pack

Забери бонус

RePack

jed

!!Акция!!

Alien_Rage

RePack

fifa19

RePack

Assassins Creed: Odyssey

RePack

NEED FOR SPEED™ PAYBACK

4 сезон

9 сезон

Бесстыжие 9 сезон

Все сериалы

все сериалы на PB.wtf

RePack

FAR CRY 5
  

Портрет леди / The Portrait of a Lady (Джейн Кэмпион) [1996, драма, мелодрама, BDRip 720p by msltel] MVO, 2 x AVO pb.wtf

Портрет леди через торрент pb.wtf

Размер: 5.35 GB | Добавлен: 3 года 6 мес. назад | Торрент скачан:19 раз
Скачать  

19-05-2017 12:34 Портрет леди Скачать торрент  

Название: Портрет леди
Оригинальное название: The Portrait of a Lady
Год выпуска: 1996
Страна: Великобритания, США
Жанр: драма, мелодрама
Продолжительность: 02:24:38
Перевод: профессиональный многоголосый, авторский

Режиссёр: Джейн Кэмпион

В ролях: Николь Кидман, Джон Малкович, Барбара Хёрши, Мэри-Луиз Паркер, Мартин Донован, Шелли Уинтерс, Ричард Э. Грант, Шелли Дювалл, Кристиан Бэйл, Вигго Мортенсен

Описание: Закат XIX века. Не лучшее время для истинной любви, но прекрасное - для браков по расчёту. Изабель Арчер, свободолюбивая девушка с душой бунтарки, шокирует ближайшее окружение своим отказом от выгодного замужества. Верная традициям и общественным устоям семья давит на неё. И даже неожиданное наследство не приносит ей долгожданной свободы. Пользуясь неутолимым любопытством юной Изабель, её коварная подруга интригами и обманом устраивает брак девушки с эгоистичным деспотом, своим бывшим любовником. Но очень скоро жестокая правда раскрывается, и, сбросив цепи семейных оков, Изабель вырывается навстречу настоящему чувству, несущему свет и надежду... Фильм по роману Ге́нри Джеймса «Женский портрет» 1881г.



Качество: BDRip 720p
Формат: MKV
Видео: MPEG-4 AVC, 4524 Кбит/с, 1280x544
Аудио 1: русский, AC3, 192 kbps, 2 ch [профессиональный многоголосый, ОРТ]
Аудио 2: русский, AC3, 192 kbps, 2 ch [авторский, Юрий Живов]
Аудио 3: русский, AC3, 192 kbps, 2 ch [авторский, Юрий Сербин]
Аудио 4: английский, AC3, 192 kbps, 2 ch, 48 kHz [оригинал]
Имеются неименованные главы/чаптеры.
Общее
Уникальный идентификатор : 207452015212801207323879712800051131867 (0x9C11CE082BCCEB24B7ED18134EF575DB)
Полное имя : D:\Video\Портрет леди.1996.BDRip.720p by msltel.mkv
Формат : Matroska
Версия формата : Version 4 / Version 2
Размер файла : 5,35 Гбайт
Продолжительность : 2 ч. 24 м.
Общий поток : 5295 Кбит/сек
Название фильма : Rip by msltel
Дата кодирования : UTC 2017-05-19 07:02:56
Программа кодирования : mkvmerge v8.2.0 ('World of Adventure') 64bit
Библиотека кодирования : libebml v1.3.1 + libmatroska v1.4.2

Видео
Идентификатор : 1
Формат : AVC
Формат/Информация : Advanced Video Codec
Профиль формата : High@L4.1
Параметр CABAC формата : Да
Параметр ReFrames формата : 9 кадров
Идентификатор кодека : V_MPEG4/ISO/AVC
Продолжительность : 2 ч. 24 м.
Битрейт : 4524 Кбит/сек
Ширина : 1280 пикселей
Высота : 544 пикселя
Соотношение сторон : 2,35:1
Режим частоты кадров : Постоянный
Частота кадров : 23,976 (24000/1001) кадра/сек
Цветовое пространство : YUV
Субдискретизация насыщенности : 4:2:0
Битовая глубина : 8 бит
Тип развёртки : Прогрессивная
Бит/(Пиксели*Кадры) : 0.271
Размер потока : 4,57 Гбайт (85%)
Библиотека кодирования : x264 core 146 r2538 121396c
Настройки программы : cabac=1 / ref=9 / deblock=1:-3:-2 / analyse=0x3:0x113 / me=umh / subme=11 / psy=1 / psy_rd=1.00:0.15 / mixed_ref=1 / me_range=32 / chroma_me=1 / trellis=2 / 8x8dct=1 / cqm=0 / deadzone=21,11 / fast_pskip=0 / chroma_qp_offset=-3 / threads=6 / lookahead_threads=1 / sliced_threads=0 / nr=0 / decimate=1 / interlaced=0 / bluray_compat=0 / constrained_intra=0 / bframes=9 / b_pyramid=2 / b_adapt=2 / b_bias=0 / direct=1 / weightb=1 / open_gop=0 / weightp=2 / keyint=230 / keyint_min=23 / scenecut=40 / intra_refresh=0 / rc_lookahead=40 / rc=crf / mbtree=0 / crf=19.0 / qcomp=0.60 / qpmin=0 / qpmax=69 / qpstep=4 / vbv_maxrate=62500 / vbv_bufsize=78125 / crf_max=0.0 / nal_hrd=none / filler=0 / ip_ratio=1.40 / pb_ratio=1.30 / aq=1:1.00
Язык : English
Default : Да
Forced : Нет

Аудио #1
Идентификатор : 2
Формат : AC-3
Формат/Информация : Audio Coding 3
Параметр Endianness формата : Big
Идентификатор кодека : A_AC3
Продолжительность : 2 ч. 24 м.
Вид битрейта : Постоянный
Битрейт : 192 Кбит/сек
Каналы : 2 канала
Расположение каналов : Front: L R
Частота : 48,0 КГц
Частота кадров : 31,250 кадров/сек (1536 spf)
Битовая глубина : 16 бит
Метод сжатия : С потерями
Размер потока : 199 Мбайт (4%)
Заголовок : MVO (OPT)
Язык : Russian
ServiceKind/String : Complete Main
Default : Да
Forced : Нет

Аудио #2
Идентификатор : 3
Формат : AC-3
Формат/Информация : Audio Coding 3
Параметр Endianness формата : Big
Идентификатор кодека : A_AC3
Продолжительность : 2 ч. 24 м.
Вид битрейта : Постоянный
Битрейт : 192 Кбит/сек
Каналы : 2 канала
Расположение каналов : Front: L R
Частота : 48,0 КГц
Частота кадров : 31,250 кадров/сек (1536 spf)
Битовая глубина : 16 бит
Метод сжатия : С потерями
Размер потока : 199 Мбайт (4%)
Заголовок : AVO (Юрий Живов)
Язык : Russian
ServiceKind/String : Complete Main
Default : Нет
Forced : Нет

Аудио #3
Идентификатор : 4
Формат : AC-3
Формат/Информация : Audio Coding 3
Параметр Endianness формата : Big
Идентификатор кодека : A_AC3
Продолжительность : 2 ч. 24 м.
Вид битрейта : Постоянный
Битрейт : 192 Кбит/сек
Каналы : 2 канала
Расположение каналов : Front: L R
Частота : 48,0 КГц
Частота кадров : 31,250 кадров/сек (1536 spf)
Битовая глубина : 16 бит
Метод сжатия : С потерями
Размер потока : 199 Мбайт (4%)
Заголовок : AVO (Юрий Сербир)
Язык : Russian
ServiceKind/String : Complete Main
Default : Нет
Forced : Нет

Аудио #4
Идентификатор : 5
Формат : AC-3
Формат/Информация : Audio Coding 3
Параметр Endianness формата : Big
Идентификатор кодека : A_AC3
Продолжительность : 2 ч. 24 м.
Вид битрейта : Постоянный
Битрейт : 192 Кбит/сек
Каналы : 2 канала
Расположение каналов : Front: L R
Частота : 48,0 КГц
Частота кадров : 31,250 кадров/сек (1536 spf)
Битовая глубина : 16 бит
Метод сжатия : С потерями
Размер потока : 199 Мбайт (4%)
Заголовок : original
Язык : English
ServiceKind/String : Complete Main
Default : Нет
Forced : Нет

Меню
00:00:00.000 : :Chapter 01
00:10:00.599 : :Chapter 02
00:20:01.200 : :Chapter 03
00:30:01.800 : :Chapter 04
00:40:02.400 : :Chapter 05
00:50:03.000 : :Chapter 06
01:00:03.600 : :Chapter 07
01:10:04.200 : :Chapter 08
01:20:04.800 : :Chapter 09
01:30:05.399 : :Chapter 10
01:40:06.000 : :Chapter 11
01:50:06.600 : :Chapter 12
02:00:07.200 : :Chapter 13
02:20:08.400 : :Chapter 14
pb.wtf



Скачать Портрет леди через торрент http://s019.radikal.ru/i614/1705/68/6176391ecf9b.jpg Скачать фильм Портрет леди через торрент бесплантно в хорошем качестве Описание: Закат XIX века. Не лучшее время для истинной любви, но прекрасное - для браков по расчёту. Изабель Арчер, свободолюбивая девушка ... 10 10 3
Info! Золотая раздача, скачанное не засчитывается.
Торрент: Зарегистрирован [2017-05-19 12:34] · скачан: 19 раз
Статус: √ проверено
Размер: 5.35 GB
Как cкачать? Как скачать Портрет леди через торрент | qTorrent

% Раздел Тема Автор DL S | L
Фильмы [HD 720p, 1080p] (Хороший звук DUB, MVO) [ 14.95 GB ] Портрет леди / The Portrait of a Lady [1996 BDRip 1080p by msltel] MVO 2 x AVO msltel Скачать
1 | 0

28-11-2019 20:33  

Отключить всю рекламу на сайте

    Дорогой пользователь! Огромная просьба, поблагодарите релизера, оцените раздачу и оставьте свои комментарий, если Вы скачали Портрет леди через торрент бесплатно! Внесите свою лепту в развитие PiratBit!
    Комментировать посты могут только пользователи прошедшие не сложную регистрацию
    Показать сообщения:    

    Портрет леди через торрент
    Скачать бесплатно Портрет леди
    Портрет леди скачать торрент
    Портрет леди смотреть онлайн
    Cкачать фильм Портрет леди бесплатно
    Портрет леди скачать торрент в хорошем качестве
    Портрет леди смотреть онлайн бесплатно в хорошем качестве


    Вы не можете начинать темы
    Вы не можете отвечать на сообщения
    Вы не можете редактировать свои сообщения
    Вы не можете удалять свои сообщения
    Вы не можете голосовать в опросах
    Вы не можете прикреплять файлы к сообщениям
    Вы можете скачивать файлы