Всегда рабочее зеркало без VPN и Proxy просто перед .vidak.icu напиши любое слово или цифру, Пример http://rfno.vidak.icu

MVO

Лицензия

1 сезон

1

1 сезон

iTunes

1 сезон

13

1 сезон

Deluxe

pack

Рекомендуем

Пиратка

30

ВАЖНО

RePack

MK11

RePack

jed

RePack

fifa19

RePack

RDR2

RePack

NEED FOR SPEED™ PAYBACK

Кинопоиск HD

6 сезон

 Острые козырьки 6 сезон

Все сериалы

все сериалы на PB.wtf

RePack

FAR CRY 5
  
Magnet ссылка

Северянин / The Northlander (Бенжамин Хейден) [2016, фантастика, фэнтези, приключения, WEB-DL 720p] MVO [Синема УС] pb.wtf

Северянин через торрент pb.wtf

Размер: 2.88 GB | Добавлен: 5 лет 1 мес. назад | Торрент скачан:127 раз
Смотреть онлайн Северянин | Скачать    Ребята, помогите собрать деньги на оплату серверов!!!

30-05-2017 12:02 Северянин Скачать торрент  

Северянин / The NorthlanderГод выпуска: 2016
Страна: Канада
Жанр: фантастика, фэнтези, приключения
Продолжительность: 01:34:24
Перевод: Любительский (многоголосый) - [Синема УС]
Субтитры: отсутствуют

Режиссер: Бенжамин Хейден

rating

В ролях:

Кори Севьер, Роузэнн Супернаульт, Мишель Траш, Джулиан Шэмп, Натаниель Арканд, Роджер ЛеБланк, Кевин Дэвей, Пол Уэлш

Описание:

В 2961 году эпоха людей подходит к концу. Природа начинает отвоёвывать назад свои территории. Охотник по имени Сигнус призван защитить свой народ. Он отправляется в путешествие сквозь пустоши, чтобы остановить шайку еретиков и найти способ спасти своё племя...

Качество: WEB-DL 720p
Формат: MKV
Видео кодек: H.264
Аудио кодек: AC3

Видео: 1280x720 (16:9), 23.976 fps, MPEG-4 AVC ~3 977 kbps avg
Аудио#1: 48.0 kHz, AC3 Dolby Digital, 2/0 (L,R) ch, ~384 kbps

скриншот   скриншот   скриншот   скриншот   скриншот  

Общее
Уникальный идентификатор : 247333181648320287172255795029898171708 (0xBA12A3590F82D699900C340840F4153C)
Полное имя : C:\The.Northlander.2016.P.WEB-DL.72Op_KOSHARA.mkv
Формат : Matroska
Версия формата : Version 2
Размер файла : 2,88 Гбайт
Продолжительность : 1 ч. 34 м.
Режим общего битрейта : Переменный
Общий поток : 4363 Кбит/сек
Дата кодирования : UTC 2017-05-28 20:20:03
Программа кодирования : mkvmerge v8.3.0 ('Over the Horizon') 64bit
Библиотека кодирования : libebml v1.3.1 + libmatroska v1.4.2

Видео
Идентификатор : 1
Формат : AVC
Формат/Информация : Advanced Video Codec
Профиль формата : High@L4.1
Параметр CABAC формата : Да
Параметр ReFrames формата : 9 кадров
Идентификатор кодека : V_MPEG4/ISO/AVC
Продолжительность : 1 ч. 34 м.
Вид битрейта : Переменный
Битрейт : 3977 Кбит/сек
Максимальный битрейт : 4500 Кбит/сек
Ширина : 1280 пикселей
Высота : 720 пикселей
Соотношение сторон : 16:9
Режим частоты кадров : Постоянный
Частота кадров : 23,976 (24000/1001) кадра/сек
Стандарт вещания : Component
Цветовое пространство : YUV
Субдискретизация насыщенности : 4:2:0
Битовая глубина : 8 бит
Тип развёртки : Прогрессивная
Бит/(Пиксели*Кадры) : 0.180
Размер потока : 2,62 Гбайт (91%)
Default : Да
Forced : Нет
Цветовой диапазон : Limited
Основные цвета : BT.709
Характеристики трансфера : BT.709
Коэффициенты матрицы : BT.709

Аудио
Идентификатор : 2
Формат : AC-3
Формат/Информация : Audio Coding 3
Расширение режима : CM (complete main)
Параметр Endianness формата : Big
Идентификатор кодека : A_AC3
Продолжительность : 1 ч. 34 м.
Вид битрейта : Постоянный
Битрейт : 384 Кбит/сек
Каналы : 2 канала
Расположение каналов : Front: L R
Частота : 48,0 КГц
Частота кадров : 31,250 кадров/сек (1536 spf)
Метод сжатия : С потерями
Размер потока : 259 Мбайт (9%)
Default : Да
Forced : Нет

pb.wtf



Скачать Северянин через торрент http://s019.radikal.ru/i642/1705/e4/3637102462e7.png Скачать, смотреть онлайн Северянин бесплантно в хорошем качестве Описание: В 2961 году эпоха людей подходит к концу. Природа начинает отвоёвывать назад свои территории. Охотник по имени Сигнус призван ... 8.2 10 5
Торрент: Зарегистрирован [2017-05-30 12:02] · скачан: 127 раз
Статус: T временная
Размер: 2.88 GB
Как cкачать? Как скачать Северянин через торрент | UTorrent

% Раздел Тема Автор DL S | L
T Релизы по Парсеру [Игры, Сериалы и Фильмы и другое...] [ 3.44 GB ] Северянин / The Northlander [2016 WEB-DL 1080p] MVO [Синема УС] bober100 Скачать
1 | 0
T Фильмы 2016 [DVDrip, WEB-DLRip, HDrip] (DUB, MVO) [ 1.37 GB ] Северянин / The Northlander [2016 WEB-DLRip] MVO [Синема УС] bober100 Скачать
1 | 0

28-11-2019 20:33  

Отключить всю рекламу на сайте

30-05-2017 12:16 Северянин Скачать торрент  

что молчим, как фильм?pb.wtf



30-05-2017 12:18 Северянин Скачать торрент  

krakatuk12 писал(а):

что молчим, как фильм?

Тока залил ещё не успелиpb.wtf



30-05-2017 12:31 Северянин Скачать торрент  

На других трекерах люди пишут что данный фильм "лютая трешовая хрень"пока еще не одного положительного комента не видел) krakatuk12 хз может зайдет гляньpb.wtf



02-06-2017 22:50 Северянин Скачать торрент  

dnipers писал(а):

На других трекерах люди пишут что данный фильм "лютая трешовая хрень"пока еще не одного положительного комента не видел) krakatuk12 хз может зайдет глянь

по скринам видать что дно голимое...pb.wtf



14-12-2017 18:16 Северянин Скачать торрент  

    Дорогой пользователь! Огромная просьба, поблагодарите релизера, оцените раздачу и оставьте свои комментарий, если Вы скачали Северянин через торрент бесплатно!
    Комментировать посты могут только пользователи прошедшие не сложную регистрацию
    Показать сообщения:    

    Северянин через торрент
    Скачать бесплатно Северянин
    Северянин скачать торрент
    Северянин смотреть онлайн
    Cкачать фильм Северянин бесплатно
    Северянин скачать торрент в хорошем качестве
    Северянин смотреть онлайн бесплатно в хорошем качестве


    Вы не можете начинать темы
    Вы не можете отвечать на сообщения
    Вы не можете редактировать свои сообщения
    Вы не можете удалять свои сообщения
    Вы не можете голосовать в опросах
    Вы не можете прикреплять файлы к сообщениям
    Вы можете скачивать файлы