MEGA SALE -50% FORZA HORIZON 4 ULTIMATE+ВСЕ DLC+ОНЛАЙН всего за 599р. 299 руб. (супер цена). Внимание количество ограничено!!!

iTunes

1+1

iTunes

мы

iTunes

1

iTunes

Чернобыль

iTunes

Ральф против интернета

Лицензия

ПШазам

Лицензия

Игра престолов

Лицензия

30
pack

ВАЖНО

!!Акция!!

Alien_RageХит недели

RePack

Resident Evil 21

ИГРА 18+

pack

RePack

Metro:Exodus

!!Акция!!

Alien_Rage

RePack

fifa19

RePack

Assassins Creed: Odyssey

RePack

NEED FOR SPEED™ PAYBACK

3 сезон

9 сезон

Бесстыжие 9 сезон

Все сериалы

все сериалы на PB.wtf

RePack

FAR CRY 5
Ребята, катастрофически не хватает 7730р. для оплаты серверов за ИЮЛЬ (всвязи с блокировками трафик упал в 3 раза), 1-2р., выручайте.
  

Решала Дилогия (Роман Асхаев) [2012-2015, драма, криминал, WEB-DLRip] pb.wtf

Решала Дилогия через торрент pb.wtf

Размер: 2.73 GB | Добавлен: 3 года 7 мес. назад | Торрент скачан:150 раз
Скачать  

23-01-2016 07:19 Решала Дилогия Скачать торрент  


Решала


ИНФОРМАЦИЯ:
Год выпуска:2012
Страна: Россия
Жанр: драма, криминал
Продолжительность: 01:19:10
Перевод: Не требуется [Русский]
Режиссер: Роман Асхаев

В Ролях:


Александр Фролов, Константин Озеров, Алина Намсараева, Мосэ Куртанидзэ, Руслан Балакшиев, Лариса Иринцеева

Описание:
Фильм о двух братьях. Старший - юрист, успешный человек, к нему обращаются за решением различных вопросов. Но ему предстоит решить самую главную задачу своей жизни - вытащить младшего брата из криминальной передряги.


ТЕХ.ДАННЫЕ:
Качество: WEB-DLRip
Формат: AVI
Видео: XviD, 720x304 (2.35:1), 2206 kbps, 24 fps, 0,420 bpp
Аудио: AC3 / 2.0 / 48 kHz / 256 kbps / 16 bit


General
Complete name : D:\Торенты\Раздачи\Решала Дилогия\Решала .2012.WEBDLRip.avi
Format : AVI
Format/Info : Audio Video Interleave
File size : 1.37 GiB
Duration : 1h 19mn
Overall bit rate : 2 472 Kbps
Writing application : VirtualDubMod 1.5.10.3 | www.virtualdub-fr.org || (build 2550/release)
Writing library : VirtualDubMod build 2550/release

Video
ID : 0
Format : MPEG-4 Visual
Format profile : Advanced Simple@L5
Format settings, BVOP : 2
Format settings, QPel : No
Format settings, GMC : No warppoints
Format settings, Matrix : Default (MPEG)
Codec ID : XVID
Codec ID/Hint : XviD
Duration : 1h 19mn
Bit rate : 2 206 Kbps
Width : 720 pixels
Height : 304 pixels
Display aspect ratio : 2.35:1
Frame rate : 24.000 fps
Color space : YUV
Chroma subsampling : 4:2:0
Bit depth : 8 bits
Scan type : Progressive
Compression mode : Lossy
Bits/(Pixel*Frame) : 0.420
Stream size : 1.22 GiB (89%)
Writing library : XviD 1.2.1 (UTC 2008-12-04)

Audio
ID : 1
Format : AC-3
Format/Info : Audio Coding 3
Mode extension : CM (complete main)
Codec ID : 2000
Duration : 1h 19mn
Bit rate mode : Constant
Bit rate : 256 Kbps
Channel(s) : 2 channels
Channel positions : Front: L R
Sampling rate : 48.0 KHz
Bit depth : 16 bits
Compression mode : Lossy
Stream size : 145 MiB (10%)
Alignment : Split accross interleaves
Interleave, duration : 42 ms (1.00 video frame)
Interleave, preload duration : 500 ms
Скриншоты:

© Оформление by .::Ворон::.

Решала 2
««Что не сделали родители-вынуждено доделывать общество»»

ИНФОРМАЦИЯ:
Год выпуска:2015
Страна: Россия
Жанр: драма, криминал
Продолжительность: 01:24:43
Перевод: Не требуется [Русский]
Режиссер: Роман Асхаев

В Ролях:


Александр Фролов, Моисей Куртанидзе, Константин Озеров, Чингиз Аздаев, Арина Есина, Руслан Балакшиев, Алина Намсараева

Описание:
После событий, произошедших в первой части, прошло 4 года. Обстановка в городе напряженная, за сферы влияний борются два криминальных авторитета - Витя Черный и Добрый. В это время из тюрьмы выходит Завгар, и Витя Черный надеется на его поддержку. Но Завгар горит желанием отомстить Каше, ведь по его наводке он отправился за решетку. Каша уехал в другой город, он впервые в жизни по-настоящему счастлив. У него жена, маленький сын, но прошлое напоминает о себе, и теперь Каша вынужден решать, как жить дальше.


ТЕХ.ДАННЫЕ:
Качество: WEB-DLRip
Формат: AVI
Видео: XviD, 720x320 (2.25:1), 1915 kbps, 25 fps, 0,333 bpp
Аудио: AC3 / 2.0 / 48 kHz / 384 kbps / 16 bit


General
Complete name : D:\Торенты\Раздачи\Решала Дилогия\Решала 2.2O15.O.WEB-DLRip..avi
Format : AVI
Format/Info : Audio Video Interleave
File size : 1.37 GiB
Duration : 1h 24mn
Overall bit rate : 2 309 Kbps
Writing application : VirtualDubMod 1.5.10.2 (build 2540/release)
Writing library : VirtualDubMod build 2540/release

Video
ID : 0
Format : MPEG-4 Visual
Format profile : Advanced Simple@L5
Format settings, BVOP : 2
Format settings, QPel : No
Format settings, GMC : No warppoints
Format settings, Matrix : Default (MPEG)
Codec ID : XVID
Codec ID/Hint : XviD
Duration : 1h 24mn
Bit rate : 1 916 Kbps
Width : 720 pixels
Height : 320 pixels
Display aspect ratio : 2.25:1
Frame rate : 25.000 fps
Color space : YUV
Chroma subsampling : 4:2:0
Bit depth : 8 bits
Scan type : Progressive
Compression mode : Lossy
Bits/(Pixel*Frame) : 0.333
Stream size : 1.13 GiB (83%)
Writing library : XviD 1.2.1 (UTC 2008-12-04)

Audio
ID : 1
Format : AC-3
Format/Info : Audio Coding 3
Mode extension : CM (complete main)
Codec ID : 2000
Duration : 1h 24mn
Bit rate mode : Constant
Bit rate : 384 Kbps
Channel(s) : 2 channels
Channel positions : Front: L R
Sampling rate : 48.0 KHz
Bit depth : 16 bits
Compression mode : Lossy
Stream size : 233 MiB (17%)
Alignment : Split accross interleaves
Interleave, duration : 40 ms (1.00 video frame)
Interleave, preload duration : 500 ms
Скриншоты:

© Оформление by .::Ворон::.
Релиз подготовлен для
pb.wtf



Скачать Решала Дилогия через торрент http://pic1.kartinco.top/images/10/75ff9.jpg Скачать фильм Решала Дилогия через торрент бесплантно в хорошем качестве Описание: Фильм о двух братьях. Старший - юрист, успешный человек, к нему обращаются за решением различных вопросов. Но ему предстоит ... 9.5 10 4
Торрент: Зарегистрирован [2016-01-23 07:19] · скачан: 150 раз
Статус: T временная
Размер: 2.73 GB
Как cкачать? Как скачать Решала Дилогия через торрент | qTorrent

% Раздел Тема Автор DL S | L
T Сборники на DVD и Сиквелы [DVDrip, WEB-DLRip, HDrip, BDRip] [ 2.92 GB ] Решала: Дилогия [2012-2015 WEB-DLRip] Twi7ter Скачать
2 | 0


>> Регистрируемся здесь <<






Отзывы и комментарии о схеме читаем и пишем здесь: ---> Отзывы и комментарии о схеме

Новые благодарочки в телеграм довольных пользователей:
скриншот   скриншот   скриншот   скриншот   скриншот

23-01-2016 10:48 Решала Дилогия Скачать торрент  

этой хрени еще и 2 частиpb.wtf



03-06-2017 12:11 Решала Дилогия Скачать торрент  

Хороший фильмpb.wtf



    Дорогой пользователь! Огромная просьба, поблагодарите релизера, оцените раздачу и оставьте свои комментарий, если Вы скачали Решала Дилогия через торрент бесплатно! Внесите свою лепту в развитие PiratBit!
    Комментировать посты могут только пользователи прошедшие не сложную регистрацию
    Показать сообщения:    

    Решала Дилогия через торрент
    Скачать бесплатно Решала Дилогия
    Решала Дилогия скачать торрент
    Решала Дилогия смотреть онлайн
    Cкачать фильм Решала Дилогия бесплатно
    Решала Дилогия скачать торрент в хорошем качестве
    Решала Дилогия смотреть онлайн бесплатно в хорошем качестве


    Вы не можете начинать темы
    Вы не можете отвечать на сообщения
    Вы не можете редактировать свои сообщения
    Вы не можете удалять свои сообщения
    Вы не можете голосовать в опросах
    Вы не можете прикреплять файлы к сообщениям
    Вы можете скачивать файлы