Всегда рабочее зеркало без VPN и Proxy просто перед .vidak.icu напиши любое слово или цифру, Пример http://cbk2.vidak.icu

MVO

Лицензия

1 сезон

1

1 сезон

iTunes

1 сезон

13

1 сезон

Deluxe

pack

Рекомендуем

Repack

30

ВАЖНО

RePack

MK11

RePack

jed

RePack

fifa19

RePack

RDR2

RePack

NEED FOR SPEED™ PAYBACK

Кинопоиск HD

6 сезон

 Острые козырьки 6 сезон

Все сериалы

все сериалы на PB.wtf

RePack

FAR CRY 5
  
Magnet ссылка

Новый Comedy Club [26.05] [2017, Юмористическое шоу, WEB-DL 720p, Не требуется Русский] pb.wtf

Новый Comedy Club через торрент pb.wtf

Размер: 1.3 GB | Добавлен: 5 лет 1 мес. назад | Торрент скачан:271 раз
Смотреть онлайн Новый Comedy Club | Скачать    Ребята, помогите собрать деньги на оплату серверов!!!

26-05-2017 23:04 Новый Comedy Club Скачать торрент  

Новый Comedy Club [эфир от 26.05]
Год выпуска: 2017
Страна: Россия
Жанр: Юмористическое шоу
Продолжительность: 00:48:12
Перевод: Не требуется [Русский]
Субтитры: отсутствуют

В ролях:

Сергей Светлаков, Семен Слепаков, Группа USB - United Sexy Boys, Сергей Гореликов, Павел Воля, Тимур Батрутдинов, Виктор Васильев и Дмитрий Хрусталев, Дуэт «Рома и Леша», Зураб Матуа, Андрей Аверин, Дмитрий «Люсёк» Сорокин, Александр Незлобин и Элвис

Описание:

На ТНТ стартует новый сезон Comedy Club. Отныне каждый выпуск шоу будет посвящен определенной тематике: мир моды и кино, День космонавтики, 1 апреля, 8 марта и даже выпуск целиком посвященный дню рождения одного из резидентов. Не пропусти! Самое популярное комедийное шоу на российском телевидении возвращается с абсолютно новой программой.

Качество: WEB-DL 720p
Формат: MKV
Видео кодек: H.264
Аудио кодек: AC3

Видео: 1280х720 (16:9), 25 fps, AVC MPEG-4 (x264), [email protected] ~ 3509 kbps , 0.152 bit/pixel
Аудио#1: 48 kHz, AC3, 2/0 (L,R) ch, ~192 kbps
скриншот   скриншот   скриншот   скриншот  

Общее
Уникальный идентификатор : 202934388516054950660183777491638569068 (0x98ABBDD6CDD0705EB686C123F464486C)
Полное имя : D:ВидеоComedy Club (26.05.2017)WEB-DL 720p by OlLanDGroup.mkv
Формат : Matroska
Версия формата : Version 4 / Version 2
Размер файла : 1,30 Гбайт
Продолжительность : 49 м.
Общий поток : 3776 Кбит/сек
Дата кодирования : UTC 2017-05-26 20:42:18
Программа кодирования : mkvmerge v12.0.0 ('Trust / Lust') 64bit
Библиотека кодирования : libebml v1.3.4 + libmatroska v1.4.5
DURATION : 00:49:16.160000000
NUMBER_OF_FRAMES : 92380
NUMBER_OF_BYTES : 70947840
_STATISTICS_WRITING_APP : mkvmerge v12.0.0 ('Trust / Lust') 64bit
_STATISTICS_WRITING_DATE_UTC : 2017-05-26 20:42:18
_STATISTICS_TAGS : BPS DURATION NUMBER_OF_FRAMES NUMBER_OF_BYTES

Видео
Идентификатор : 1
Формат : AVC
Формат/Информация : Advanced Video Codec
Профиль формата : [email protected]
Параметр CABAC формата : Да
Параметр ReFrames формата : 1 кадр
Параметр GOP формата : M=1, N=12
Идентификатор кодека : V_MPEG4/ISO/AVC
Продолжительность : 49 м.
Битрейт : 3509 Кбит/сек
Ширина : 1280 пикселей
Высота : 720 пикселей
Соотношение сторон : 16:9
Режим частоты кадров : Постоянный
Частота кадров : 25,000 кадров/сек
Стандарт вещания : Component
Цветовое пространство : YUV
Субдискретизация насыщенности : 4:2:0
Битовая глубина : 8 бит
Тип развёртки : Прогрессивная
Бит/(Пиксели*Кадры) : 0.152
Размер потока : 1,21 Гбайт (93%)
Язык : Russian
Default : Да
Forced : Нет

Аудио
Идентификатор : 2
Формат : AC-3
Формат/Информация : Audio Coding 3
Расширение режима : CM (complete main)
Параметр Endianness формата : Big
Идентификатор кодека : A_AC3
Продолжительность : 49 м.
Вид битрейта : Постоянный
Битрейт : 192 Кбит/сек
Каналы : 2 канала
Расположение каналов : Front: L R
Частота : 48,0 КГц
Битовая глубина : 16 бит
Метод сжатия : С потерями
Размер потока : 67,7 Мбайт (5%)
Язык : Russian
Default : Да
Forced : Нет

pb.wtf



Скачать Новый Comedy Club через торрент http://s019.radikal.ru/i612/1704/b5/5b4ead60078d.jpg Скачать, смотреть онлайн Новый Comedy Club [26.05] [2017, Юмористическое шоу, WEB-DL 720p, Не требуется Русский] бесплантно в хорошем качестве Описание: На ТНТ стартует новый сезон Comedy Club. Отныне каждый выпуск шоу будет посвящен определенной тематике: мир моды и кино, День ... 9 10 10
Торрент: Зарегистрирован [2017-05-26 23:04] · скачан: 271 раз
Статус: √ проверено
Размер: 1.3 GB
Как cкачать? Как скачать Новый Comedy Club через торрент | UTorrent

% Раздел Тема Автор DL S | L
Comedy Club - Комеди Клаб new [ 534 MB ] Новый Comedy Club [2012 тв-шоу юмор SATRip] эфир от 23.03.12 shuller Скачать
1 | 0
Comedy Club - Комеди Клаб new [ 491 MB ] Новый Comedy Club [2012 тв-шоу юмор SATRip] эфир от 02.01.12 shuller Скачать
1 | 0
Comedy Club - Комеди Клаб new [ 485 MB ] Новый Comedy Club - The best of Гарик и Тимур [2011 тв-шоу юмор SATRip] эфир от 23.12.11 shuller Скачать
1 | 0
Comedy Club - Комеди Клаб new [ 560 MB ] Новый Comedy Club [2012 тв-шоу юмор SATRip] эфир от 14.09.12 shuller Скачать
1 | 0
Comedy Club - Комеди Клаб new [ 601 MB ] Новый Comedy Club [2013 Телепередача Юмор SATRip] эфир от 19.04.13 1mpulse2k20 Скачать
1 | 0
Comedy Club - Комеди Клаб new [ 546 MB ] Новый Comedy Club [2013 Телепередача Юмор SATRip] эфир от 26.04.13 1mpulse2k20 Скачать
1 | 0
Comedy Club - Комеди Клаб new [ 556 MB ] Новый Comedy Club [2013 Телепередача Юмор SATRip] эфир от 8.05.13 1mpulse2k20 Скачать
1 | 0

28-11-2019 20:33  

Отключить всю рекламу на сайте

02-06-2017 18:47 Новый Comedy Club Скачать торрент  

Когда будет эфир от 02.06.2017 на трекере?
Спасибо)))pb.wtf



03-06-2017 09:01 Новый Comedy Club Скачать торрент  

Skazzzzzzzzza, у них каникулы теперь не скоро будут новые выпуски)pb.wtf



03-06-2017 09:01 Новый Comedy Club Скачать торрент  

Skazzzzzzzzza, осень жди) pb.wtf





Последний раз редактировалось: bober100 (2017-06-03 09:04), всего редактировалось 1 раз

04-06-2017 15:06 Новый Comedy Club Скачать торрент  

Я понял,спасибо,будем ждать)))pb.wtf



    Дорогой пользователь! Огромная просьба, поблагодарите релизера, оцените раздачу и оставьте свои комментарий, если Вы скачали Новый Comedy Club через торрент бесплатно!
    Комментировать посты могут только пользователи прошедшие не сложную регистрацию
    Показать сообщения:    

    Новый Comedy Club через торрент
    Скачать бесплатно Новый Comedy Club
    Новый Comedy Club скачать торрент
    Новый Comedy Club смотреть онлайн
    Cкачать фильм Новый Comedy Club бесплатно
    Новый Comedy Club скачать торрент в хорошем качестве
    Новый Comedy Club смотреть онлайн бесплатно в хорошем качестве


    Вы не можете начинать темы
    Вы не можете отвечать на сообщения
    Вы не можете редактировать свои сообщения
    Вы не можете удалять свои сообщения
    Вы не можете голосовать в опросах
    Вы не можете прикреплять файлы к сообщениям
    Вы можете скачивать файлы