Всегда рабочее зеркало без VPN и Proxy просто перед .vidak.icu напиши любое слово или цифру, Пример http://iftp.vidak.icu

MVO

2 сезон

2 сезон

1

1 сезон

iTunes

2 сезон

13

1 сезон

Распродажа

pack

Рекомендуем

Пиратка

30

ВАЖНО

RePack

MK11

RePack

jed

RePack

fifa19

RePack

RDR2

RePack

NEED FOR SPEED™ PAYBACK

Кинопоиск HD

6 сезон

 Острые козырьки 6 сезон

Все сериалы

все сериалы на PB.wtf

RePack

FAR CRY 5

Anonymous, нам критически не хватает 5601 руб. на оплату серверов и переферии за Апрель, помоги нам пожалуйста, вся надежда только на тебя. В благодарность мы отключим тебе всю рекламу на сайте!

×
  
Magnet ссылка

Человек без звезды / Man Without a Star (Кинг Видор) [1955, вестерн, BDRip 720p by msltel] AVO pb.wtf

Человек без звезды через торрент pb.wtf

Размер: 3.73 GB | Добавлен: 4 года 11 мес. назад | Торрент скачан:1 раз
Смотреть онлайн Человек без звезды | Скачать    Ребята, помогите собрать деньги на оплату серверов!!!

08-06-2017 05:57 Человек без звезды Скачать торрент  

Название: Человек без звезды
Оригинальное название: Man Without a Star
Год выпуска: 1955
Страна: США
Жанр: вестерн
Продолжительность: 01:29:08
Перевод: авторский

Режиссёр: Кинг Видор

В ролях: Кирк Дуглас, Джинн Крейн, Клер Тревор, Уильям Кэмпбелл, Ричард Бун, Джей С. Флиппен, Мирна Хансен, Мара Кордей, Эдди Уоллер, Шеб Вули, Джордж Уоллес, Фрэнк Чейз, Пол Бирч, Рой Баркрофт, Уильям 'Билл' Филлипс, Карл Андре, Малкольм Аттербери, Уильям Чэлли, Джек Илэм

Описание: Кочующий с места на место бывалый ковбой Демпси Рэй встречает во время своих странствий юного Джеффа, вместе с которым находит работу на ранчо. Став хорошим наставником для юноши в обучении ковбойскому мастерству, Дэмпси невольно втягивается в противостояние их хозяйки тем фермерам, которые огораживают свои владения колючей проволокой. Их ранчо не огорожено, и это вызывает недовольство у владельцев заборов, которые Демпси, привыкший к вольной жизни, ненавидит всей душой...



Качество: BDRip 720p
Формат: MKV
Видео: MPEG-4 AVC, 5700 Kбит/с, 1280x640
Аудио 1: русский, AC3, 96 kbps, 1 ch [авторский, Сергей Кузнецов]
Аудио 2: английский, AC3, 192 kbps, 2 ch, 48 kHz [оригинал]
Имеются неименованные главы/чаптеры.
Общее
Уникальный идентификатор : 212793865751257454611442456696640658489 (0xA0169B98FE03E0BCA310B4AE442E5C39)
Полное имя : D:\Video\Человек без звезды.1955.BDRip.720p by msltel.mkv
Формат : Matroska
Версия формата : Version 4 / Version 2
Размер файла : 3,73 Гбайт
Продолжительность : 1 ч. 29 м.
Общий поток : 5990 Кбит/сек
Название фильма : Rip by msltel
Дата кодирования : UTC 2017-06-07 13:27:14
Программа кодирования : mkvmerge v8.2.0 ('World of Adventure') 64bit
Библиотека кодирования : libebml v1.3.1 + libmatroska v1.4.2

Видео
Идентификатор : 1
Формат : AVC
Формат/Информация : Advanced Video Codec
Профиль формата : High@L4.1
Параметр CABAC формата : Да
Параметр ReFrames формата : 9 кадров
Идентификатор кодека : V_MPEG4/ISO/AVC
Продолжительность : 1 ч. 29 м.
Битрейт : 5700 Кбит/сек
Ширина : 1280 пикселей
Высота : 640 пикселей
Соотношение сторон : 2,000
Режим частоты кадров : Постоянный
Частота кадров : 23,976 (24000/1001) кадра/сек
Цветовое пространство : YUV
Субдискретизация насыщенности : 4:2:0
Битовая глубина : 8 бит
Тип развёртки : Прогрессивная
Бит/(Пиксели*Кадры) : 0.290
Размер потока : 3,55 Гбайт (95%)
Библиотека кодирования : x264 core 146 r2538 121396c
Настройки программы : cabac=1 / ref=9 / deblock=1:-3:-2 / analyse=0x3:0x113 / me=umh / subme=11 / psy=1 / psy_rd=1.00:0.15 / mixed_ref=1 / me_range=32 / chroma_me=1 / trellis=2 / 8x8dct=1 / cqm=0 / deadzone=21,11 / fast_pskip=0 / chroma_qp_offset=-3 / threads=6 / lookahead_threads=1 / sliced_threads=0 / nr=0 / decimate=1 / interlaced=0 / bluray_compat=0 / constrained_intra=0 / bframes=7 / b_pyramid=2 / b_adapt=2 / b_bias=0 / direct=1 / weightb=1 / open_gop=0 / weightp=2 / keyint=230 / keyint_min=23 / scenecut=40 / intra_refresh=0 / rc_lookahead=40 / rc=crf / mbtree=0 / crf=18.0 / qcomp=0.60 / qpmin=0 / qpmax=69 / qpstep=4 / vbv_maxrate=62500 / vbv_bufsize=78125 / crf_max=0.0 / nal_hrd=none / filler=0 / ip_ratio=1.40 / pb_ratio=1.30 / aq=1:1.00
Язык : English
Default : Да
Forced : Нет

Аудио #1
Идентификатор : 2
Формат : AC-3
Формат/Информация : Audio Coding 3
Параметр Endianness формата : Big
Идентификатор кодека : A_AC3
Продолжительность : 1 ч. 29 м.
Вид битрейта : Постоянный
Битрейт : 96,0 Кбит/сек
Каналы : 1 канал
Расположение каналов : Front: C
Частота : 48,0 КГц
Частота кадров : 31,250 кадров/сек (1536 spf)
Битовая глубина : 16 бит
Метод сжатия : С потерями
Размер потока : 61,2 Мбайт (2%)
Заголовок : AVO (Сергей Кузнецов)
Язык : Russian
ServiceKind/String : Complete Main
Default : Да
Forced : Нет

Аудио #2
Идентификатор : 3
Формат : AC-3
Формат/Информация : Audio Coding 3
Параметр Endianness формата : Big
Идентификатор кодека : A_AC3
Продолжительность : 1 ч. 29 м.
Вид битрейта : Постоянный
Битрейт : 192 Кбит/сек
Каналы : 2 канала
Расположение каналов : Front: L R
Частота : 48,0 КГц
Частота кадров : 31,250 кадров/сек (1536 spf)
Битовая глубина : 16 бит
Метод сжатия : С потерями
Размер потока : 122 Мбайт (3%)
Заголовок : original
Язык : English
ServiceKind/String : Complete Main
Default : Нет
Forced : Нет

Меню
00:00:00.000 : en:00:00:00.000
00:01:43.020 : en:00:01:43.020
00:05:38.047 : en:00:05:38.047
00:08:09.281 : en:00:08:09.281
00:11:25.478 : en:00:11:25.478
00:14:07.264 : en:00:14:07.264
00:19:09.150 : en:00:19:09.150
00:25:12.513 : en:00:25:12.513
00:28:43.975 : en:00:28:43.975
00:32:11.016 : en:00:32:11.016
00:40:18.044 : en:00:40:18.044
00:44:42.517 : en:00:44:42.517
00:50:42.044 : en:00:50:42.044
00:52:08.589 : en:00:52:08.589
00:54:53.128 : en:00:54:53.128
01:04:06.182 : en:01:04:06.182
01:10:40.868 : en:01:10:40.868
01:12:41.030 : en:01:12:41.030
01:15:16.686 : en:01:15:16.686
01:17:42.373 : en:01:17:42.373
01:19:52.170 : en:01:19:52.170
01:22:33.039 : en:01:22:33.039
01:26:45.083 : en:01:26:45.083
01:28:02.911 : en:01:28:02.911
pb.wtf



Скачать Человек без звезды через торрент http://s012.radikal.ru/i320/1706/1a/72a398670439.jpg Скачать, смотреть онлайн Человек без звезды бесплантно в хорошем качестве Описание: Кочующий с места на место бывалый ковбой Демпси Рэй встречает во время своих странствий юного Джеффа, вместе с которым находит ... 10 10 1
Info! Золотая раздача, скачанное не засчитывается.
Торрент: Зарегистрирован [2017-06-08 05:57] · скачан: 1 раз
Статус: √ проверено
Размер: 3.73 GB
Как cкачать? Как скачать Человек без звезды через торрент | UTorrent

% Раздел Тема Автор DL S | L
Фильмы с авторской озвучкой [ 9.4 GB ] Человек без звезды / Man Without a Star [1955 BDRip 1080p by msltel] AVO msltel Скачать
1 | 0

28-11-2019 20:33  

Отключить всю рекламу на сайте

11-12-2017 18:29 Человек без звезды Скачать торрент  

фильм очень хорош, к просмотру рекомендуется.pb.wtf



    Дорогой пользователь! Огромная просьба, поблагодарите релизера, оцените раздачу и оставьте свои комментарий, если Вы скачали Человек без звезды через торрент бесплатно!
    Комментировать посты могут только пользователи прошедшие не сложную регистрацию
    Показать сообщения:    

    Человек без звезды через торрент
    Скачать бесплатно Человек без звезды
    Человек без звезды скачать торрент
    Человек без звезды смотреть онлайн
    Cкачать фильм Человек без звезды бесплатно
    Человек без звезды скачать торрент в хорошем качестве
    Человек без звезды смотреть онлайн бесплатно в хорошем качестве


    Вы не можете начинать темы
    Вы не можете отвечать на сообщения
    Вы не можете редактировать свои сообщения
    Вы не можете удалять свои сообщения
    Вы не можете голосовать в опросах
    Вы не можете прикреплять файлы к сообщениям
    Вы можете скачивать файлы