Лицензия

MVO

1

1 сезон

Лицензия

Лицензия

13

MVO

1 сезон

Deluxe Edition

pack

Рекомендуем

30

Repack

ВАЖНО

ВАЖНО

Ghostwire

RePack

jed

RePack

fifa19

RePack

RDR2

RePack

NEED FOR SPEED™ PAYBACK

RePack

Кинопоиск HD

 Острые козырьки 6 сезон

6 сезон

FAR CRY 6

RePack

Лицензия

MVO

1

1 сезон

1 сезон

Лицензия

  

История письменности / Die Geschichte der Schrift (Da Vinci Learning) [2011 г., Документальный, История, SATRip, Профессиональный (одноголосый)]

История письменности через торрент pb.wtf

Размер: 645 MB | Добавлен: 5 лет 3 мес. назад | Торрент скачан:43 раза
Смотреть онлайн История письменности | Скачать   

18-06-2017 06:15 История письменности Скачать торрент  

История письменности / Die Geschichte der Schrift
Год выпуска: 2011
Страна: Германия
Жанр: Документальный, История
Продолжительность: 00:52:09
Перевод: Профессиональный (одноголосый)

Режиссер: Da Vinci Learning

Описание:

У алфавита богатое прошлое но нет будущего. Но даже сейчас письмо остаётся единственным и главным средством для выражения человеческих мыслей и идей.

Качество: SATRip
Формат: AVI
Видео кодек: XviD
Аудио кодек: MP3
Видео: XviD, 704x400 (16:9), 1591 kbps, 25 fps, 0,226 bpp
Аудио#1: русский / MP3 / 2.0 / 48 kHz / 128 kbps /
General
Complete name : C:\Downloads\История письменности (2011).avi
Format : AVI
Format/Info : Audio Video Interleave
File size : 645 MiB
Duration : 52 min 9 s
Overall bit rate : 1 729 kb/s
Director : Rip by shibay9
Writing application : VirtualDubMod 1.5.10.2 (build 2540/release)
Original source form/Name : Documentary

Video
ID : 0
Format : MPEG-4 Visual
Format profile : Advanced [email protected]
Format settings, BVOP : 1
Format settings, QPel : No
Format settings, GMC : No warppoints
Format settings, Matrix : Default (H.263)
Codec ID : XVID
Codec ID/Hint : XviD
Duration : 52 min 9 s
Bit rate : 1 591 kb/s
Width : 704 pixels
Height : 400 pixels
Display aspect ratio : 16:9
Frame rate : 25.000 FPS
Color space : YUV
Chroma subsampling : 4:2:0
Bit depth : 8 bits
Scan type : Progressive
Compression mode : Lossy
Bits/(Pixel*Frame) : 0.226
Stream size : 594 MiB (92%)
Writing library : XviD 1.2.0.dev47 (UTC 2006-11-01)

Audio
ID : 1
Format : MPEG Audio
Format version : Version 1
Format profile : Layer 3
Codec ID : 55
Codec ID/Hint : MP3
Duration : 52 min 9 s
Bit rate mode : Constant
Bit rate : 128 kb/s
Channel(s) : 2 channels
Sampling rate : 48.0 kHz
Compression mode : Lossy
Stream size : 47.8 MiB (7%)
Alignment : Aligned on interleaves
Interleave, duration : 40 ms (1.00 video frame)
Interleave, preload duratio : 504 ms
Writing library : LAME3.97
Encoding settings : -m s -V 4 -q 2 -lowpass 17 -b 128

скриншот   скриншот   скриншот   скриншот  



Скачать История письменности через торрент http://i053.radikal.ru/1706/95/6f40b96bdc11.jpg Скачать, смотреть онлайн История письменности бесплантно в хорошем качестве Описание: У алфавита богатое прошлое но нет будущего. Но даже сейчас письмо остаётся единственным и главным средством для выражения ... 10 10 3
Торрент: Зарегистрирован [2017-06-18 06:15] · скачан: 43 раз
Статус: √ проверено
Размер: 645 MB
Как cкачать? Как скачать История письменности через торрент | UTorrent

28-11-2019 20:33  

Отключить вcю реклaмy на сайте

31-07-2018 17:26 История письменности Скачать торрент  

Забрал.



    Дорогой пользователь! Огромная просьба, поблагодарите релизера, оцените раздачу и оставьте свои комментарий, если Вы скачали История письменности через торрент бесплатно!!
    Комментировать посты могут только пользователи прошедшие не сложную регистрацию
    Показать сообщения:    


    История письменности через торрент
    Скачать бесплатно История письменности
    История письменности скачать торрент
    История письменности смотреть онлайн
    Cкачать фильм История письменности бесплатно
    История письменности скачать торрент в хорошем качестве
    История письменности смотреть онлайн бесплатно в хорошем качестве
    Вы не можете начинать темы
    Вы не можете отвечать на сообщения
    Вы не можете редактировать свои сообщения
    Вы не можете удалять свои сообщения
    Вы не можете голосовать в опросах
    Вы не можете прикреплять файлы к сообщениям
    Вы можете скачивать файлы