Ссылка на приватное зеркало нашего сайта всего за 1$. Внимание количество ограничено!!!

2 сезон

iTunes

1 сезон

1

2 сезон

2 сезон

iTunes

1 сезон

RePack

30

Ultimate

ВАЖНО

ИГРА 18+

pack

RePack

MK11
pack

Забери бонус

RePack

jed

!!Акция!!

Alien_Rage

RePack

fifa19

RePack

Assassins Creed: Odyssey

RePack

NEED FOR SPEED™ PAYBACK

4 сезон

9 сезон

Бесстыжие 9 сезон

Все сериалы

все сериалы на PB.wtf

RePack

FAR CRY 5
  

Любимчик / De-Lovely (Ирвин Уинклер) [2004, мюзикл, драма, биография, BDRip 1080p by msltel] DUB, MVO, AVO pb.wtf

Любимчик через торрент pb.wtf

Размер: 14.97 GB | Добавлен: 3 года 5 мес. назад | Торрент скачан:1 раз
Скачать  

18-06-2017 07:34 Любимчик Скачать торрент  

Название: Любимчик
Оригинальное название: De-Lovely
Год выпуска: 2004
Страна: США, Великобритания
Жанр: мюзикл, драма, биография
Продолжительность: 02:05:06
Перевод: дублированный, профессиональный многоголосый, авторский

Режиссёр: Ирвин Уинклер

В ролях: Кевин Клайн, Эшли Джадд, Джонатан Прайс, Кевин МакНэлли, Сандра Нельсон, Аллан Кордунер, Питер Поликарпу, Кит Аллен, Джеймс Уилби, Кевин МакКидд, Ричард Диллэйн

Описание: История жизни американского композитора Коула Портера. А вся его жизнь заключалась в музыке, сцене и его жене Линде Ли...



Качество: BDRip 1080p
Формат: MKV
Видео: MPEG-4 AVC, 13.5 Mбит/с, 1920x816
Аудио 1: русский, AC3, 192 kbps, 2 ch, 48 kHz [дублированный]
Аудио 2: русский, AC3, 448 kbps, 6 ch, 48 kHz [профессиональный многоголосый]
Аудио 3: русский, DTS, 1509 kbps, 6 ch, 48 kHz [авторский, Юрий Сербин]
Аудио 4: английский, DTS, 1509 kbps, 6 ch, 48 kHz [оригинал]
Субтитры 1: русские (тексты песен)
Субтитры 2: английские
Имеются неименованные главы/чаптеры.
Общее
Уникальный идентификатор : 232187406926708773858727512247119945880 (0xAEADAB00255E1082A28C46F0F59CA098)
Полное имя : D:\Video\Любимчик.2004.BDRip.1080p by msltel.mkv
Формат : Matroska
Версия формата : Version 4 / Version 2
Размер файла : 15,0 Гбайт
Продолжительность : 2 ч. 5 м.
Общий поток : 17,1 Мбит/сек
Название фильма : Rip by msltel
Дата кодирования : UTC 2017-06-15 15:12:12
Программа кодирования : mkvmerge v8.2.0 ('World of Adventure') 64bit
Библиотека кодирования : libebml v1.3.1 + libmatroska v1.4.2

Видео
Идентификатор : 1
Формат : AVC
Формат/Информация : Advanced Video Codec
Профиль формата : High@L4.1
Параметр CABAC формата : Да
Параметр ReFrames формата : 4 кадра
Идентификатор кодека : V_MPEG4/ISO/AVC
Продолжительность : 2 ч. 5 м.
Битрейт : 13,5 Мбит/сек
Ширина : 1920 пикселей
Высота : 816 пикселей
Соотношение сторон : 2,35:1
Режим частоты кадров : Постоянный
Частота кадров : 23,976 (24000/1001) кадра/сек
Цветовое пространство : YUV
Субдискретизация насыщенности : 4:2:0
Битовая глубина : 8 бит
Тип развёртки : Прогрессивная
Бит/(Пиксели*Кадры) : 0.358
Размер потока : 11,8 Гбайт (79%)
Библиотека кодирования : x264 core 146 r2538 121396c
Настройки программы : cabac=1 / ref=4 / deblock=1:-3:-2 / analyse=0x3:0x113 / me=umh / subme=11 / psy=1 / psy_rd=1.00:0.15 / mixed_ref=1 / me_range=32 / chroma_me=1 / trellis=2 / 8x8dct=1 / cqm=0 / deadzone=21,11 / fast_pskip=0 / chroma_qp_offset=-3 / threads=6 / lookahead_threads=1 / sliced_threads=0 / nr=0 / decimate=1 / interlaced=0 / bluray_compat=0 / constrained_intra=0 / bframes=13 / b_pyramid=2 / b_adapt=2 / b_bias=0 / direct=1 / weightb=1 / open_gop=0 / weightp=2 / keyint=230 / keyint_min=23 / scenecut=40 / intra_refresh=0 / rc_lookahead=40 / rc=crf / mbtree=0 / crf=17.7 / qcomp=0.60 / qpmin=0 / qpmax=69 / qpstep=4 / vbv_maxrate=62500 / vbv_bufsize=78125 / crf_max=0.0 / nal_hrd=none / filler=0 / ip_ratio=1.40 / pb_ratio=1.30 / aq=1:1.00
Язык : English
Default : Да
Forced : Нет

Аудио #1
Идентификатор : 2
Формат : AC-3
Формат/Информация : Audio Coding 3
Параметр Endianness формата : Big
Идентификатор кодека : A_AC3
Продолжительность : 2 ч. 5 м.
Вид битрейта : Постоянный
Битрейт : 192 Кбит/сек
Каналы : 2 канала
Расположение каналов : Front: L R
Частота : 48,0 КГц
Частота кадров : 31,250 кадров/сек (1536 spf)
Битовая глубина : 16 бит
Метод сжатия : С потерями
Размер потока : 172 Мбайт (1%)
Заголовок : DUB
Язык : Russian
ServiceKind/String : Complete Main
Default : Да
Forced : Нет

Аудио #2
Идентификатор : 3
Формат : AC-3
Формат/Информация : Audio Coding 3
Параметр Endianness формата : Big
Идентификатор кодека : A_AC3
Продолжительность : 2 ч. 5 м.
Вид битрейта : Постоянный
Битрейт : 448 Кбит/сек
Каналы : 6 каналов
Расположение каналов : Front: L C R, Side: L R, LFE
Частота : 48,0 КГц
Частота кадров : 31,250 кадров/сек (1536 spf)
Битовая глубина : 16 бит
Метод сжатия : С потерями
Размер потока : 401 Мбайт (3%)
Заголовок : MVO
Язык : Russian
ServiceKind/String : Complete Main
Default : Нет
Forced : Нет

Аудио #3
Идентификатор : 4
Формат : DTS
Формат/Информация : Digital Theater Systems
Режим : 16
Параметр Endianness формата : Big
Идентификатор кодека : A_DTS
Продолжительность : 2 ч. 5 м.
Вид битрейта : Постоянный
Битрейт : 1509 Кбит/сек
Каналы : 6 каналов
Расположение каналов : Front: L C R, Side: L R, LFE
Частота : 48,0 КГц
Частота кадров : 93,750 кадра/сек (512 spf)
Битовая глубина : 24 бит
Метод сжатия : С потерями
Размер потока : 1,32 Гбайт (9%)
Заголовок : AVO (Юрий Сербин)
Язык : Russian
Default : Нет
Forced : Нет

Аудио #4
Идентификатор : 5
Формат : DTS
Формат/Информация : Digital Theater Systems
Режим : 16
Параметр Endianness формата : Big
Идентификатор кодека : A_DTS
Продолжительность : 2 ч. 5 м.
Вид битрейта : Постоянный
Битрейт : 1509 Кбит/сек
Каналы : 6 каналов
Расположение каналов : Front: L C R, Side: L R, LFE
Частота : 48,0 КГц
Частота кадров : 93,750 кадра/сек (512 spf)
Битовая глубина : 24 бит
Метод сжатия : С потерями
Размер потока : 1,32 Гбайт (9%)
Заголовок : original
Язык : English
Default : Нет
Forced : Нет

Текст #1
Идентификатор : 6
Формат : UTF-8
Идентификатор кодека : S_TEXT/UTF8
Идентификатор кодека/Информация : UTF-8 Plain Text
Продолжительность : 1 ч. 55 м.
Битрейт : 30 бит/сек
ElementCount : 457
Размер потока : 25,6 Кбайт (0%)
Заголовок : русские (песни)
Язык : Russian
Default : Нет
Forced : Нет

Текст #2
Идентификатор : 7
Формат : UTF-8
Идентификатор кодека : S_TEXT/UTF8
Идентификатор кодека/Информация : UTF-8 Plain Text
Продолжительность : 2 ч. 4 м.
Битрейт : 79 бит/сек
ElementCount : 1905
Размер потока : 72,8 Кбайт (0%)
Заголовок : английские
Язык : English
Default : Нет
Forced : Нет

Меню
00:00:00.000 : :Chapter 01
00:02:44.246 : :Chapter 02
00:06:03.196 : :Chapter 03
00:08:10.780 : :Chapter 04
00:11:52.628 : :Chapter 05
00:16:07.633 : :Chapter 06
00:19:27.333 : :Chapter 07
00:24:51.614 : :Chapter 08
00:27:03.204 : :Chapter 09
00:30:23.238 : :Chapter 10
00:31:33.767 : :Chapter 11
00:35:18.407 : :Chapter 12
00:39:18.481 : :Chapter 13
00:43:27.103 : :Chapter 14
00:47:53.329 : :Chapter 15
00:51:25.206 : :Chapter 16
00:52:52.293 : :Chapter 17
00:53:54.481 : :Chapter 18
00:57:23.815 : :Chapter 19
01:00:45.349 : :Chapter 20
01:05:14.827 : :Chapter 21
01:07:13.612 : :Chapter 22
01:09:44.430 : :Chapter 23
01:11:52.307 : :Chapter 24
01:14:38.265 : :Chapter 25
01:15:58.261 : :Chapter 26
01:19:48.533 : :Chapter 27
01:24:10.671 : :Chapter 28
01:26:34.189 : :Chapter 29
01:32:05.019 : :Chapter 30
01:34:28.912 : :Chapter 31
01:41:56.109 : :Chapter 32
01:45:07.301 : :Chapter 33
01:47:03.000 : :Chapter 34
01:52:43.673 : :Chapter 35
01:58:26.140 : :Chapter 36
pb.wtf



Скачать Любимчик через торрент http://s010.radikal.ru/i312/1706/6e/294cf2f74c03.jpg Скачать фильм Любимчик через торрент бесплантно в хорошем качестве Описание: История жизни американского композитора Коула Портера. А вся его жизнь заключалась в музыке, сцене и его жене Линде Ли... ... 10 10 2
Info! Золотая раздача, скачанное не засчитывается.
Торрент: Зарегистрирован [2017-06-18 07:34] · скачан: 1 раз
Статус: √ проверено
Размер: 14.97 GB
Как cкачать? Как скачать Любимчик через торрент | qTorrent

% Раздел Тема Автор DL S | L
Фильмы [HD 720p, 1080p] (Хороший звук DUB, MVO) [ 5.68 GB ] Любимчик / De-Lovely [2004 мюзикл биография BDRip 720p by msltel] DUB MVO AVO msltel Скачать
1 | 0

28-11-2019 20:33  

Отключить всю рекламу на сайте

    Дорогой пользователь! Огромная просьба, поблагодарите релизера, оцените раздачу и оставьте свои комментарий, если Вы скачали Любимчик через торрент бесплатно! Внесите свою лепту в развитие PiratBit!
    Комментировать посты могут только пользователи прошедшие не сложную регистрацию
    Показать сообщения:    

    Любимчик через торрент
    Скачать бесплатно Любимчик
    Любимчик скачать торрент
    Любимчик смотреть онлайн
    Cкачать фильм Любимчик бесплатно
    Любимчик скачать торрент в хорошем качестве
    Любимчик смотреть онлайн бесплатно в хорошем качестве


    Вы не можете начинать темы
    Вы не можете отвечать на сообщения
    Вы не можете редактировать свои сообщения
    Вы не можете удалять свои сообщения
    Вы не можете голосовать в опросах
    Вы не можете прикреплять файлы к сообщениям
    Вы можете скачивать файлы