Мега распродажа FORZA HORIZON 4 ULTIMATE+ВСЕ DLC+ОНЛАЙН всего за 499р. 349 руб. (супер цена). Внимание количество ограничено!!!

Лицензия

30

iTunes

мы

iTunes

1

1 сезон

Чернобыль

1 сезон

Ральф против интернета

MVO

Покемон. Детектив Пикачу

8 сезон

Игра престолов

iTunes

1+1

ИГРА 18+

pack

ВАЖНО

!!Акция!!

Alien_RageХит недели

RePack

Resident Evil 21
pack

RePack

Metro:Exodus

!!Акция!!

Alien_Rage

RePack

fifa19

RePack

Assassins Creed: Odyssey

RePack

NEED FOR SPEED™ PAYBACK

3 сезон

9 сезон

Бесстыжие 9 сезон

Все сериалы

все сериалы на PB.wtf

RePack

FAR CRY 5
Ребята, катастрофически не хватает 2730р. для оплаты серверов за МАЙ (всвязи с блокировками трафик упал в 3 раза), 1-2р., выручайте.
  

Королева ночи / Die Königin der Nacht (Эмили Атеф) [2017 г., Драма, HDTVRip, Любительский (двухголосый)[Студия актуального кино]] pb.wtf

Королева ночи через торрент pb.wtf

Размер: 1.46 GB | Добавлен: 1 год 11 мес. назад | Торрент скачан:301 раз
Скачать  

22-07-2017 11:32 Королева ночи Скачать торрент  

Королева ночи / Die Königin der Nacht
Год выпуска: 2017
Страна: Германия / Südwestdeutscher Rundfunk (SWR)
Жанр: Драма
Продолжительность: 01:28:20
Перевод: Любительский (двухголосый)[Студия актуального кино]
Субтитры: Русские (внешние)

Режиссер: Эмили Атеф

rating

В ролях: Зильке Боденбендер, Питер Шнайдер, Хари Принц, Корнелия Грёшель, Гено Лехнер, Матиас

Описание: Для Инги и Людвига настали тяжелые времена. Их семейная ферма приносит слишком мало дохода, банк требует возвращения кредита, иначе грозится забрать её за долги. Чтобы хоть как-то удержаться на плаву, Инга по вечерам подрабатывает официанткой в стриптиз-баре, и там новая приятельница уговаривает её поработать в эскорт-агентстве в Баден-Бадене. Инга, подумав, соглашается. Она даже не подозревала, какие проблемы перед ней возникнут.

Доп. информация: Рекламы нет.

Качество: HDTVRip
Формат: AVI
Видео кодек: XviD
Аудио кодек: AC3
Видео: XviD, 1962 Кбит/сек, 720x400
Аудио#1: Русский : AC3, 2 ch, 192 Кбит/сек
Аудио#2: Немецкий: AC3, 2 ch, 192 Кбит/сек
скриншот   скриншот   скриншот   скриншот  

General
Complete name : H:\релизы.торрентфайл\Die Königin der Nacht (2017)\Die Königin der Nacht (2017).avi
Format : AVI
Format/Info : Audio Video Interleave
Format profile : OpenDML
File size : 1.46 GiB
Duration : 1h 28mn
Overall bit rate : 2 363 Kbps
Writing application : Lavf57.71.100
Comment : Rip by Basma4i

Video
ID : 0
Format : MPEG-4 Visual
Format profile : Advanced Simple@L5
Format settings, BVOP : No
Format settings, QPel : No
Format settings, GMC : No warppoints
Format settings, Matrix : Default (H.263)
Codec ID : XVID
Codec ID/Hint : XviD
Duration : 1h 28mn
Bit rate : 1 962 Kbps
Width : 720 pixels
Height : 400 pixels
Display aspect ratio : 16:9
Frame rate : 25.000 fps
Color space : YUV
Chroma subsampling : 4:2:0
Bit depth : 8 bits
Scan type : Progressive
Compression mode : Lossy
Bits/(Pixel*Frame) : 0.272
Stream size : 1.21 GiB (83%)
Writing library : XviD 67

Audio #1
ID : 1
Format : AC-3
Format/Info : Audio Coding 3
Mode extension : CM (complete main)
Format settings, Endianness : Big
Codec ID : 2000
Duration : 1h 28mn
Bit rate mode : Constant
Bit rate : 192 Kbps
Channel(s) : 2 channels
Channel positions : Front: L R
Sampling rate : 44.1 KHz
Bit depth : 16 bits
Compression mode : Lossy
Stream size : 121 MiB (8%)
Alignment : Aligned on interleaves
Interleave, duration : 35 ms (0.87 video frame)

Audio #2
ID : 2
Format : AC-3
Format/Info : Audio Coding 3
Mode extension : CM (complete main)
Format settings, Endianness : Big
Codec ID : 2000
Duration : 1h 28mn
Bit rate mode : Constant
Bit rate : 192 Kbps
Channel(s) : 2 channels
Channel positions : Front: L R
Sampling rate : 44.1 KHz
Bit depth : 16 bits
Compression mode : Lossy
Stream size : 121 MiB (8%)
Alignment : Aligned on interleaves
Interleave, duration : 35 ms (0.87 video frame)

pb.wtf



Скачать Королева ночи через торрент http://i92.fastpic.ru/big/2017/0722/d2/7e2f2242cbab39f03a11c00a9a7b08d2.png Скачать фильм Королева ночи через торрент бесплантно в хорошем качестве Описание: Для Инги и Людвига настали тяжелые времена. Их семейная ферма приносит слишком мало дохода, банк требует возвращения кредита, ... 8.5 10 4
Торрент: Зарегистрирован [2017-07-22 11:32] · скачан: 301 раз
Статус: T временная
Размер: 1.46 GB
Как cкачать? Как скачать Королева ночи через торрент | qTorrent


>> Регистрируемся здесь <<






Отзывы и комментарии о схеме читаем и пишем здесь: ---> Отзывы и комментарии о схеме

Новые благодарочки в телеграм довольных пользователей:
скриншот   скриншот   скриншот   скриншот   скриншот

22-07-2017 12:29 Королева ночи Скачать торрент  

Топик был перенесен из форума Фильмы 2017 [DVDrip, WEB-DLRip, HDrip] (DUB, MVO) в форум Фильмы 2017 (Звук TS, Cam, VO, DVO)


schultzpb.wtf



    Дорогой пользователь! Огромная просьба, поблагодарите релизера, оцените раздачу и оставьте свои комментарий, если Вы скачали Королева ночи через торрент бесплатно! Внесите свою лепту в развитие PiratBit!
    Комментировать посты могут только пользователи прошедшие не сложную регистрацию
    Показать сообщения:    

    Королева ночи через торрент
    Скачать бесплатно Королева ночи
    Королева ночи скачать торрент
    Королева ночи смотреть онлайн
    Cкачать фильм Королева ночи бесплатно
    Королева ночи скачать торрент в хорошем качестве
    Королева ночи смотреть онлайн бесплатно в хорошем качестве


    Вы не можете начинать темы
    Вы не можете отвечать на сообщения
    Вы не можете редактировать свои сообщения
    Вы не можете удалять свои сообщения
    Вы не можете голосовать в опросах
    Вы не можете прикреплять файлы к сообщениям
    Вы можете скачивать файлы