Всегда рабочее зеркало без VPN и Proxy просто перед .vidak.icu напиши любое слово или цифру, Пример http://pnpc.vidak.icu

MVO

2 сезон

1 сезон

1

1 сезон

iTunes

2 сезон

13

1 сезон

Deluxe

pack

Рекомендуем

Пиратка

30

ВАЖНО

RePack

MK11

RePack

jed

RePack

fifa19

RePack

RDR2

RePack

NEED FOR SPEED™ PAYBACK

Кинопоиск HD

6 сезон

 Острые козырьки 6 сезон

Все сериалы

все сериалы на PB.wtf

RePack

FAR CRY 5

Anonymous, нам критически не хватает 5601 руб. на оплату серверов и переферии за Апрель, помоги нам пожалуйста, вся надежда только на тебя. В благодарность мы отключим тебе всю рекламу на сайте!

×
  
Magnet ссылка

Одиночка / The Loner (Дэниэл Гроув) [2016, боевик, триллер, криминал, детектив, WEB-DL 1080p] AVO [BadBajo] pb.wtf

Одиночка через торрент pb.wtf

Размер: 3.78 GB | Добавлен: 4 года 9 мес. назад | Торрент скачан:37 раз
Смотреть онлайн Одиночка | Скачать    Ребята, помогите собрать деньги на оплату серверов!!!

03-08-2017 12:08 Одиночка Скачать торрент  

Одиночка / The LonerГод выпуска: 2016
Страна: США
Жанр: боевик, триллер, криминал, детектив
Продолжительность: 01:41:35
Перевод: Авторский (одноголосый)
Субтитры: английские

Режиссер: Дэниэл Гроув

rating

В ролях:

Реза Сиксо Сафаи, Хелена Мэттссон, Парвиз Сайяд, Джулиан Сэндс, Амин Наземзадех, Лаура Хэрринг, Николай Кински, Никол Бушери, Дэвид Диаан, Грегори Касьян

Описание:

Дитя войны Бехруз живет в Лос Анджелесе. Собирается стать агентом по недвижимости, работая на своего приятеля Сафинью. Встречается с проституткой из Белоруссии и, время от времени, закупается опиумом у своего друга детства Сефера. Как-то вечером Бехруз, оказывая услугу Сафинье, заехал за его дочерью в клуб "Ключ" и встретил своих старых знакомых. Будучи заядлым игроком в карты, он не смог отказаться от приглашения сыграть пару партий в покер. Этот вечер закончился не скоро.

Качество: WEB-DL 1080p
Формат: MKV
Видео кодек: H.264
Аудио кодек: AC3

Видео: AVC, 1904x804 (2.35:1), 23.976 fps ~ 4550 Kbps
Аудио#1: AC3, 48 KHz, 6 ch ~ 384 Kb/s (русский)
Аудио#2: AC3, 48 KHz, 6 ch ~ 384 Kb/s (английский)
скриншот   скриншот   скриншот   скриншот   скриншот  

Общее
Уникальный идентификатор : 191758646731573425316928755079134038477 (0x90435F3A50628B51AD5514896B2FC9CD)
Полное имя : D:\The.Persian.Connection.2016.1080p.WEB-DL.DD5.1.H264_rus_BadBajo.mkv
Формат : Matroska
Версия формата : Version 4 / Version 2
Размер файла : 3,78 Гбайт
Продолжительность : 1 ч. 41 м.
Общий поток : 5320 Кбит/сек
Название фильма : The.Persian.Connection.2016.1080p.WEB-DL.DD5.1.H264_rus_BadBajo
Дата кодирования : UTC 2017-08-02 22:39:21
Программа кодирования : mkvmerge v13.0.0 ('The Juggler') 64bit
Библиотека кодирования : libebml v1.3.4 + libmatroska v1.4.5
Обложка : Yes
Attachments : cover.jpg

Видео
Идентификатор : 1
Формат : AVC
Формат/Информация : Advanced Video Codec
Профиль формата : High@L4
Параметр CABAC формата : Да
Параметр ReFrames формата : 5 кадров
Идентификатор кодека : V_MPEG4/ISO/AVC
Продолжительность : 1 ч. 41 м.
Битрейт : 4550 Кбит/сек
Ширина : 1904 пикселя
Высота : 804 пикселя
Соотношение сторон : 2,35:1
Режим частоты кадров : Постоянный
Частота кадров : 23,976 (24000/1001) кадра/сек
Цветовое пространство : YUV
Субдискретизация насыщенности : 4:2:0
Битовая глубина : 8 бит
Тип развёртки : Прогрессивная
Бит/(Пиксели*Кадры) : 0.124
Размер потока : 3,23 Гбайт (86%)
Заголовок : The.Persian.Connection.2016.1080p.WEB-DL.DD5.1.H264-FGT
Язык : English
Default : Да
Forced : Нет
Цветовой диапазон : Limited
Основные цвета : BT.709
Характеристики трансфера : BT.709
Коэффициенты матрицы : BT.709

Аудио #1
Идентификатор : 2
Формат : AC-3
Формат/Информация : Audio Coding 3
Расширение режима : CM (complete main)
Параметр Endianness формата : Big
Идентификатор кодека : A_AC3
Продолжительность : 1 ч. 41 м.
Вид битрейта : Постоянный
Битрейт : 384 Кбит/сек
Каналы : 6 каналов
Расположение каналов : Front: L C R, Side: L R, LFE
Частота : 48,0 КГц
Частота кадров : 31,250 кадров/сек (1536 spf)
Метод сжатия : С потерями
Задержка видео : -42 мс.
Размер потока : 279 Мбайт (7%)
Заголовок : The.Persian.Connection.2016.1080p.WEB-DL.DD5.1.H264_rus_BadBajo
Язык : Russian
Default : Да
Forced : Да

Аудио #2
Идентификатор : 3
Формат : AC-3
Формат/Информация : Audio Coding 3
Расширение режима : CM (complete main)
Параметр Endianness формата : Big
Идентификатор кодека : A_AC3
Продолжительность : 1 ч. 41 м.
Вид битрейта : Постоянный
Битрейт : 384 Кбит/сек
Каналы : 6 каналов
Расположение каналов : Front: L C R, Side: L R, LFE
Частота : 48,0 КГц
Частота кадров : 31,250 кадров/сек (1536 spf)
Метод сжатия : С потерями
Задержка видео : -42 мс.
Размер потока : 279 Мбайт (7%)
Заголовок : The.Persian.Connection.2016.1080p.WEB-DL.DD5.1.H264-FGT
Язык : English
Default : Нет
Forced : Нет

Текст
Идентификатор : 4
Формат : UTF-8
Идентификатор кодека : S_TEXT/UTF8
Идентификатор кодека/Информация : UTF-8 Plain Text
Продолжительность : 1 ч. 30 м.
Битрейт : 21 бит/сек
Count of elements : 594
Размер потока : 14,1 Кбайт (0%)
Язык : English
Default : Да
Forced : Нет

Меню
00:00:00.000 : en:Chapter 1
00:11:03.663 : en:Chapter 2
00:20:05.204 : en:Chapter 3
00:30:27.826 : en:Chapter 4
00:42:23.541 : en:Chapter 5
00:51:28.085 : en:Chapter 6
01:01:19.676 : en:Chapter 7
01:09:40.176 : en:Chapter 8
01:21:05.861 : en:Chapter 9
01:30:22.417 : en:Chapter 10
01:36:44.799 : en:Chapter 11

pb.wtf



Скачать Одиночка через торрент http://i95.fastpic.ru/big/2017/0803/b5/f1077b3cef447a283521140f8ba2fab5.jpg Скачать, смотреть онлайн Одиночка бесплантно в хорошем качестве Описание: Дитя войны Бехруз живет в Лос Анджелесе. Собирается стать агентом по недвижимости, работая на своего приятеля Сафинью. ... 10 10 3
Торрент: Зарегистрирован [2017-08-03 12:08] · скачан: 37 раз
Статус: √ проверено
Размер: 3.78 GB
Как cкачать? Как скачать Одиночка через торрент | UTorrent

% Раздел Тема Автор DL S | L
T Релизы по Парсеру [Игры, Сериалы и Фильмы и другое...] [ 1.37 GB ] Одиночка / The Loner [2016 WEB-DLRip] MVO ["Синема УС"] bober100 Скачать
1 | 0
Фильмы с авторской озвучкой [ 1.48 GB ] Одиночка / The Loner / The Persian Connection [2016 WEB-DLRip] AVO [BadBajo] - ExKinoRay Enigma2010 Скачать
1 | 0
Фильмы до 2000 г. [ 1.46 GB ] Одиночка / Le Solitaire / The Loner [1987 DVDRip] MVO Assasinca Скачать
1 | 0

28-11-2019 20:33  

Отключить всю рекламу на сайте

    Дорогой пользователь! Огромная просьба, поблагодарите релизера, оцените раздачу и оставьте свои комментарий, если Вы скачали Одиночка через торрент бесплатно!
    Комментировать посты могут только пользователи прошедшие не сложную регистрацию
    Показать сообщения:    

    Одиночка через торрент
    Скачать бесплатно Одиночка
    Одиночка скачать торрент
    Одиночка смотреть онлайн
    Cкачать фильм Одиночка бесплатно
    Одиночка скачать торрент в хорошем качестве
    Одиночка смотреть онлайн бесплатно в хорошем качестве


    Вы не можете начинать темы
    Вы не можете отвечать на сообщения
    Вы не можете редактировать свои сообщения
    Вы не можете удалять свои сообщения
    Вы не можете голосовать в опросах
    Вы не можете прикреплять файлы к сообщениям
    Вы можете скачивать файлы