Доктор Стрэндж

Лицензия

Добыча

Дубляж

Дом дракона

1 сезон

Тор

Дубляж

В эфире

Дубляж

Там, где раки поют

MVO

Властелин колец

1 сезон

Ultimate

pack

Рекомендуем

30

Пиратка

ВАЖНО

ВАЖНО

Ghostwire

Пиратка

jed

RePack

nioh2

RePack

RDR2

RePack

NEED FOR SPEED™ PAYBACK

RePack

скачать торрент

Кинопоиск HD

Острые козырьки 6 сезон

6 сезон

FAR CRY 6

RePack

скачать торрент

Лицензия

скачать торрент

MVO

1

1 сезон

скачать торрент

1 сезон

скачать торрент

Лицензия

  

Висельник / Gallowwalkers (Эндрю Гот / Andrew Goth) [ 2012 , США, Великобритания , ужасы, фэнтези, боевик , HDRip-AVC , Любительский (одноголосый закадровый) ]

Висельник через торрент pb.wtf

Размер: 2.19 GB | Добавлен: 9 лет 3 мес. назад | Торрент скачан:265 раз
Смотреть онлайн | Скачать   

30-07-2013 15:57 Висельник Скачать торрент  

Висельник / Gallowwalkers
  • Год выпуска: 2012
  • Страна: США, Великобритания
  • Жанр: ужасы, фэнтези, боевик, триллер, вестерн
  • Продолжительность: 01:32:24
  • Перевод: Любительский (одноголосый закадровый) den904
  • Субтитры: Нет
  • Режиссер: Эндрю Гот / Andrew Goth
  • В ролях: Уэсли Снайпс (Aman), Кевин Ховарт (Kansa), Райли Смит (Fabulos), Танит Феникс (Angel), Симона Брликова (Kisscut), Стивен Элдер (Apollo Jones), Патрик Бергин (Marshall Gaza), Джей Грант (Slip Knot), Гектор Хэнк (Hool), Дэвид Де Бир (Apprentice Boy), Алисса Придхэма (Sueno), Даллас Пейдж (Skullbucket)
  • Описание: Вестерн-триллер о бандите, чьи жертвы возвращаются с того света в обличье зомби, и главный герой прибегает к помощи молодого человека, чтобы справиться с ними.
  • Рейтинг
    kinopoisk.ru: 6.513 (200)
    imdb.com: 6.30 (235)
    MPAA: R - Лицам до 17 лет обязательно присутствие взрослого
  • Качество: HDRip-AVC
  • Формат: MKV
  • Видео кодек: х.264
  • Аудио кодек: AC3
  • Видео: х.264, 960x408 (2.35:1), 23,976 fps, 2491 Кbps, 0.265 bit/pixel
  • Аудио №1: 48 kHz, AC3 Dolby Digital, 3/2 (L,C,R,l,r) + LFE ch, 448.00 kbps | RUS
  • Аудио №2: 48 kHz, AC3 Dolby Digital, 3/2 (L,C,R,l,r) + LFE ch, 448.00 kbps | ENG

    General
    Unique ID : 243095778111435181475220043774526653436 (0xB6E28B3938E7D9BDB64A3DE1505E83FC)
    Complete name : D:Visel'nik.2012.DUAL.BDRip.x264.-HELLYWOOD.mkv
    Format : Matroska
    Format version : Version 2
    File size : 2.19 GiB
    Duration : 1h 32mn
    Overall bit rate : 3 385 Kbps
    Movie name : HELLYWOOD
    Encoded date : UTC 2013-07-30 14:17:17
    Writing application : mkvmerge v5.9.0 ('On The Loose') built on Dec 15 2012 16:39:58
    Writing library : libebml v1.3.0 + libmatroska v1.4.0

    Video
    ID : 1
    Format : AVC
    Format/Info : Advanced Video Codec
    Format profile : [email protected]
    Format settings, CABAC : Yes
    Format settings, ReFrames : 12 frames
    Codec ID : V_MPEG4/ISO/AVC
    Duration : 1h 32mn
    Bit rate : 2 491 Kbps
    Width : 960 pixels
    Height : 408 pixels
    Display aspect ratio : 2.35:1
    Frame rate : 23.976 fps
    Color space : YUV
    Chroma subsampling : 4:2:0
    Bit depth : 8 bits
    Scan type : Progressive
    Bits/(Pixel*Frame) : 0.265
    Stream size : 1.56 GiB (72%)
    Title : Gallowwalkers
    Writing library : x264 core 130 r2273 b3065e6
    Encoding settings : cabac=1 / ref=12 / deblock=1:-2:-1 / analyse=0x3:0x133 / me=umh / subme=11 / psy=1 / psy_rd=1.06:0.01 / mixed_ref=1 / me_range=32 / chroma_me=1 / trellis=2 / 8x8dct=1 / cqm=0 / deadzone=21,11 / fast_pskip=0 / chroma_qp_offset=-3 / threads=9 / lookahead_threads=2 / sliced_threads=0 / nr=0 / decimate=1 / interlaced=0 / bluray_compat=0 / constrained_intra=0 / bframes=13 / b_pyramid=2 / b_adapt=2 / b_bias=0 / direct=3 / weightb=1 / open_gop=0 / weightp=2 / keyint=250 / keyint_min=23 / scenecut=40 / intra_refresh=0 / rc_lookahead=150 / rc=2pass / mbtree=1 / bitrate=2491 / ratetol=1.0 / qcomp=0.70 / qpmin=0 / qpmax=69 / qpstep=4 / cplxblur=20.0 / qblur=0.5 / vbv_maxrate=20000 / vbv_bufsize=20000 / nal_hrd=none / ip_ratio=1.35 / aq=1:0.70
    Language : English
    Default : Yes
    Forced : No

    Audio #1
    ID : 2
    Format : AC-3
    Format/Info : Audio Coding 3
    Mode extension : CM (complete main)
    Codec ID : A_AC3
    Duration : 1h 32mn
    Bit rate mode : Constant
    Bit rate : 448 Kbps
    Channel(s) : 6 channels
    Channel positions : Front: L C R, Side: L R, LFE
    Sampling rate : 48.0 KHz
    Bit depth : 16 bits
    Compression mode : Lossy
    Delay relative to video : 6s 800ms
    Stream size : 296 MiB (13%)
    Title : VO | DD 5.1 @ 448 kbps - den904
    Language : Russian
    Default : Yes
    Forced : Yes

    Audio #2
    ID : 3
    Format : AC-3
    Format/Info : Audio Coding 3
    Mode extension : CM (complete main)
    Codec ID : A_AC3
    Duration : 1h 32mn
    Bit rate mode : Constant
    Bit rate : 448 Kbps
    Channel(s) : 6 channels
    Channel positions : Front: L C R, Side: L R, LFE
    Sampling rate : 48.0 KHz
    Bit depth : 16 bits
    Compression mode : Lossy
    Stream size : 296 MiB (13%)
    Title : Original | DD 5.1 @ 448 kbps
    Language : English
    Default : No
    Forced : No



  • Скачать Висельник через торрент https://pic1.kartinco.top/images/23/1n6pue8u8j.png Скачать, смотреть онлайн Висельник бесплантно в хорошем качестве Описание: Вестерн-триллер о бандите, чьи жертвы возвращаются с того света в обличье зомби, и главный герой прибегает к помощи молодого ... 9.1 10 8
    Info! Золотая раздача, скачанное не засчитывается.
    Торрент: Зарегистрирован [2013-07-30 15:57] · скачан: 265 раз
    Статус: √ проверено
    Размер: 2.19 GB
    Как cкачать? Как скачать Висельник через торрент | UTorrent

    % Раздел Тема Автор DL S | L
    Фильмы 2012 [ 698 MB ] Висельник / Gallowwalkers | | HDRip Ворон Скачать
    1 | 0
    Фильмы [HD 720p, 1080p] (Звук Cam, VO, DVO) [ 5.75 GB ] Висельник / Gallowwalkers | | 720p Ворон Скачать
    1 | 0
    Фильмы 2012 [ 1.37 GB ] Висельник / Gallowwalkers | | HDRip Ворон Скачать
    1 | 0



    Последний раз редактировалось: МАКС1 (2013-07-31 18:12), всего редактировалось 1 раз

    28-11-2019 20:33  


    Отключить вcю реклaмy на сайте, в т.ч. и в плеере онлайн просмотра!

    30-07-2013 16:02 Висельник Скачать торрент  

    Ооо Снайпс вернулся в кино)) вроде в тюрьме сидел



    30-07-2013 17:10 Висельник Скачать торрент  

    Boogeyman_35rus писал(а):

    Ооо Снайпс вернулся в кино)) вроде в тюрьме сидел

    Ему пирог передали, а в нем блейдовский меч, вот он на свободе и в кино!



    15-08-2017 17:11 Висельник Скачать торрент  

    Хороший фильм/b]



      Дорогой пользователь! Огромная просьба, поблагодарите релизера, оцените раздачу и оставьте свои комментарий, если Вы скачали Висельник через торрент бесплатно!!
      Комментировать посты могут только пользователи прошедшие не сложную регистрацию
      Показать сообщения:    


      Висельник через торрент
      Скачать бесплатно Висельник
      Висельник скачать торрент
      Висельник смотреть онлайн
      Cкачать фильм Висельник бесплатно
      Висельник скачать торрент в хорошем качестве
      Висельник смотреть онлайн бесплатно в хорошем качестве
      Вы не можете начинать темы
      Вы не можете отвечать на сообщения
      Вы не можете редактировать свои сообщения
      Вы не можете удалять свои сообщения
      Вы не можете голосовать в опросах
      Вы не можете прикреплять файлы к сообщениям
      Вы можете скачивать файлы
      Висельник / Gallowwalkers [ 2012 , США, Великобритания , ужасы, фэнтези, боевик , HDRip-AVC , Любительский ] смотреть онлайн, скачать торрент picoco.icu