Всегда рабочее зеркало без VPN и Proxy просто перед .vidak.icu напиши любое слово или цифру, Пример http://3ogu.vidak.icu

MVO

2 сезон

1 сезон

1

1 сезон

iTunes

2 сезон

13

1 сезон

Deluxe

pack

Рекомендуем

Пиратка

30

ВАЖНО

RePack

MK11

RePack

jed

RePack

fifa19

RePack

RDR2

RePack

NEED FOR SPEED™ PAYBACK

Кинопоиск HD

6 сезон

 Острые козырьки 6 сезон

Все сериалы

все сериалы на PB.wtf

RePack

FAR CRY 5

Anonymous, нам критически не хватает 5601 руб. на оплату серверов и переферии за Апрель, помоги нам пожалуйста, вся надежда только на тебя. В благодарность мы отключим тебе всю рекламу на сайте!

×
  
Magnet ссылка

Бессонница / Shi mian / The Sleep Curse (Херман Яу) [2017, Триллер, ужасы, HDRip-AVC] AVO [BadBajo] - ExKinoRay pb.wtf

Бессонница через торрент pb.wtf

Размер: 2.81 GB | Добавлен: 4 года 8 мес. назад | Торрент скачан:65 раз
Смотреть онлайн Бессонница | Скачать    Ребята, помогите собрать деньги на оплату серверов!!!

26-08-2017 03:18 Бессонница Скачать торрент  

Информация о фильме
Название: Бессонница
Оригинальное название: Shi mian (Sleep Curse)
Год выпуска: 2017
Жанр: Триллер, ужасы
Страна: Китай
Студия: Asia Tropical Films, Emperor Film Production
Продолжительность: 01:40:11
Озвучивание: Авторское (одноголосое) [BadBajo]
Субтитры: Английские
Режиссер: Херман Яу
В ролях: Энтони Вон, Гордон Лам, Мишель Вай, Джоджо Го, Брайант Мак Чи Лок, Икки Фунаки

Описание:
В 1990 году доктор Лам занимается исследованиями сна — зачем нужен сон, какие изменения происходят в мозгу, если долго не спать, и может ли человек и вовсе обходиться без сна. К доктору обращается бывшая возлюбленная, которая оставила его 10 лет назад, с просьбой вылечить брата от бессонницы. Оказывается, что семья девушки страдает наследственной болезнью — в определенный момент человек перестает спать, начинает мучаться галлюцинациями и в конце концов умирает.


rating

Файл
Формат: MKV
Качество: HDRip-AVC
Видео: MPEG-4 AVC, 1024x436 (2.35:1), 3120 Kbit/s, 23.976 fps, 0,291 bpp
Звук:
Аудио1: 48 kHz, AC3, 5.1, 448 Kbps | BadBajo | RUS
Аудио2: 48 kHz, AC3, 5.1, 448 Kbps | CHI

Без какой-либо рекламы
General
Unique ID : 241499795147853334752406554296583579131 (0xB5AF2B302D2805A99BDC46A42545E5FB)
Complete name : D:\The.Sleep.Curse.2017.AVO.BadBajo.HDRip.AVC.ExKinoRay.mkv
Format : Matroska
Format version : Version 2
File size : 2.81 GiB
Duration : 1 h 40 min
Overall bit rate : 4 016 kb/s
Movie name : The Sleep Curse 2017 from ExKinoRay
Encoded date : UTC 2017-08-25 20:26:10
Writing application : mkvmerge v5.6.0 ('Kenya Kane') built on May 27 2012 16:44:04
Writing library : libebml v1.2.3 + libmatroska v1.3.0

Video
ID : 1
Format : AVC
Format/Info : Advanced Video Codec
Format profile : High@L4.1
Format settings, CABAC : Yes
Format settings, ReFrames : 12 frames
Codec ID : V_MPEG4/ISO/AVC
Duration : 1 h 40 min
Bit rate : 3 120 kb/s
Width : 1 024 pixels
Height : 436 pixels
Display aspect ratio : 2.35:1
Frame rate mode : Constant
Frame rate : 24.000 FPS
Color space : YUV
Chroma subsampling : 4:2:0
Bit depth : 8 bits
Scan type : Progressive
Bits/(Pixel*Frame) : 0.291
Stream size : 2.13 GiB (76%)
Title : Enigma
Writing library : x264 core 144 r2525 40bb568
Encoding settings : cabac=1 / ref=12 / deblock=1:-2:-2 / analyse=0x3:0x113 / me=umh / subme=10 / psy=1 / psy_rd=0.97:0.05 / mixed_ref=1 / me_range=32 / chroma_me=0 / trellis=2 / 8x8dct=1 / cqm=0 / deadzone=21,11 / fast_pskip=1 / chroma_qp_offset=-3 / threads=12 / lookahead_threads=3 / sliced_threads=0 / nr=0 / decimate=0 / interlaced=0 / bluray_compat=0 / constrained_intra=0 / bframes=10 / b_pyramid=2 / b_adapt=2 / b_bias=0 / direct=3 / weightb=1 / open_gop=0 / weightp=2 / keyint=240 / keyint_min=24 / scenecut=40 / intra_refresh=0 / rc_lookahead=40 / rc=2pass / mbtree=0 / bitrate=3120 / ratetol=1.0 / qcomp=0.62 / qpmin=0 / qpmax=51 / qpstep=4 / cplxblur=20.0 / qblur=0.5 / vbv_maxrate=50000 / vbv_bufsize=62500 / nal_hrd=none / filler=0 / ip_ratio=1.40 / pb_ratio=1.30 / aq=1:1.00
Language : English
Default : Yes
Forced : No
Color range : Limited
Color primaries : BT.709
Transfer characteristics : BT.709
Matrix coefficients : BT.709

Audio #1
ID : 2
Format : AC-3
Format/Info : Audio Coding 3
Mode extension : CM (complete main)
Format settings, Endianness : Big
Codec ID : A_AC3
Duration : 1 h 40 min
Bit rate mode : Constant
Bit rate : 448 kb/s
Channel(s) : 6 channels
Channel positions : Front: L C R, Side: L R, LFE
Sampling rate : 48.0 kHz
Frame rate : 31.250 FPS (1536 spf)
Compression mode : Lossy
Stream size : 321 MiB (11%)
Title : AVO (BadBajo)
Language : Russian
Default : Yes
Forced : No

Audio #2
ID : 3
Format : AC-3
Format/Info : Audio Coding 3
Mode extension : CM (complete main)
Format settings, Endianness : Big
Codec ID : A_AC3
Duration : 1 h 40 min
Bit rate mode : Constant
Bit rate : 448 kb/s
Channel(s) : 6 channels
Channel positions : Front: L C R, Side: L R, LFE
Sampling rate : 48.0 kHz
Frame rate : 31.250 FPS (1536 spf)
Compression mode : Lossy
Stream size : 321 MiB (11%)
Language : Chinese
Default : No
Forced : No

Text
ID : 4
Format : UTF-8
Codec ID : S_TEXT/UTF8
Codec ID/Info : UTF-8 Plain Text
Language : English
Default : No
Forced : No
Релиз от:

Автор релиза: pb.wtf



Скачать Бессонница через торрент http://lostpix.com/img/2017-08/25/512cm96q5f5pz35ms8w0pjo1g.jpg Скачать, смотреть онлайн Бессонница бесплантно в хорошем качестве Описание: В 1990 году доктор Лам занимается исследованиями сна — зачем нужен сон, какие изменения происходят в мозгу, если долго не спать, ... 5 10 1
Info! Золотая раздача, скачанное не засчитывается.
Торрент: Зарегистрирован [2017-08-26 03:18] · скачан: 65 раз
Статус: √ проверено
Размер: 2.81 GB
Как cкачать? Как скачать Бессонница через торрент | UTorrent

% Раздел Тема Автор DL S | L
Фильмы с авторской озвучкой [ 1.45 GB ] Бессонница / Shi mian / The Sleep Curse [2017 HDRip] AVO [BadBajo] - ExKinoRay Enigma2010 Скачать
1 | 0

28-11-2019 20:33  

Отключить всю рекламу на сайте

    Дорогой пользователь! Огромная просьба, поблагодарите релизера, оцените раздачу и оставьте свои комментарий, если Вы скачали Бессонница через торрент бесплатно!
    Комментировать посты могут только пользователи прошедшие не сложную регистрацию
    Показать сообщения:    

    Бессонница через торрент
    Скачать бесплатно Бессонница
    Бессонница скачать торрент
    Бессонница смотреть онлайн
    Cкачать фильм Бессонница бесплатно
    Бессонница скачать торрент в хорошем качестве
    Бессонница смотреть онлайн бесплатно в хорошем качестве


    Вы не можете начинать темы
    Вы не можете отвечать на сообщения
    Вы не можете редактировать свои сообщения
    Вы не можете удалять свои сообщения
    Вы не можете голосовать в опросах
    Вы не можете прикреплять файлы к сообщениям
    Вы можете скачивать файлы