Ссылка на приватное зеркало нашего сайта всего за 1$. Внимание количество ограничено!!!

2 сезон

iTunes

1 сезон

1

2 сезон

2 сезон

iTunes

1 сезон

RePack

30

Ultimate

ВАЖНО

ИГРА 18+

pack

RePack

MK11
pack

Забери бонус

RePack

jed

!!Акция!!

Alien_Rage

RePack

fifa19

RePack

Assassins Creed: Odyssey

RePack

NEED FOR SPEED™ PAYBACK

4 сезон

9 сезон

Бесстыжие 9 сезон

Все сериалы

все сериалы на PB.wtf

RePack

FAR CRY 5
  

Чужой: Завет / Alien: Covenant (Ридли Скотт) [2017, Фантастика, триллер, ужасы, BDRip 720p] DUB [Лицензия] pb.wtf

Чужой: Завет через торрент pb.wtf

Раздают: 1 [ 0 KB/s ]
Размер: 5.24 GB | Добавлен: 3 года 2 мес. назад | Торрент скачан:1307 раз
Скачать  

31-08-2017 20:33 Чужой: Завет Скачать торрент  

Чужой: Завет / Alien: CovenantГод выпуска: 2017
Страна: США, Австралия, Новая Зеландия, Великобритания
Жанр: Фантастика, триллер, ужасы
Продолжительность: 02:02:03
Перевод: Дубляж Лицензия
Субтитры: Русские (forced, 2 x full), английские (full, SDH, SDH Colored)

Режиссер: Ридли Скотт

rating

В ролях:

Майкл Фассбендер, Кэтрин Уотерстон, Билли Крадап, Дэнни МакБрайд, Демиан Бишир, Кармен Эджого, Джусси Смоллетт, Калли Эрнандес, Эми Саймец, Натаниель Дин, Александр Инглэнд, Бенжамин Ригби, Ули Латукефу, Тесс Хобрич, Лорелей Кинг, Горан Д’Клюе

Описание:

2104 год. Колониальный корабль "Завет" с живыми людьми на борту бороздит просторы большого космоса на пути к неосвоенной целине. Попав в нейтринную вспышку и отделавшись легким испугом, экипаж получает загадочный сигнал с неизвестной планеты, на которой есть все условия для жизни. После непродолжительных колебаний команда прокладывает новый курс к источнику сигнала и вскоре оказывается в земном раю посреди рекордного урожая пшеницы. Однако, головокружение от успехов прерывает встреча с жертвами отсутствия генетического контроля и единственным выжившим членом экспедиции "Прометея" - андроидом Дэвидом. Неизведанный рай оборачивается суицидальным кошмаром с жестоким надругательством над психикой, купанием в соляной кислоте и поиском духовного смысла.


Качество: BDRip 720p
Формат: MKV
Видео кодек: H.264
Аудио кодек: AC3

Видео: MPEG-4 AVC, 1280x534, 4860 Kbit/s, 23.976 fps
Аудио#1: 48 kHz, AC3, 5.1, 448 Kbps | Дублированный | RUS |
Аудио#2: 48 kHz, AC3, 5.1, 640 Kbps | Оригинал | ENG |
Аудио#3: 48 kHz, AC3, 2.0, 224 Kbps | Commentary by Director Ridley Scott | ENG |
скриншот   скриншот   скриншот   скриншот   скриншот  

General
Unique ID : 219169025435659304679527085393198934572 (0xA4E26B3CD346C44D95385E369F276A2C)
Complete name : C:UsersbattiDesktopAlien.Covenant.2017.BDRip.720p.ExKinoRay.mkv
Format : Matroska
Format version : Version 4 / Version 2
File size : 5.24 GiB
Duration : 2 h 2 min
Overall bit rate : 6 150 kb/s
Encoded date : UTC 2017-08-31 18:46:22
Writing application : mkvmerge v15.0.0 ('Duel with the Devil') 64-bit
Writing library : libebml v1.3.5 + libmatroska v1.4.5

Video
ID : 1
Format : AVC
Format/Info : Advanced Video Codec
Format profile : High@L4.1
Format settings, CABAC : Yes
Format settings, RefFrames : 12 frames
Codec ID : V_MPEG4/ISO/AVC
Duration : 2 h 2 min
Bit rate : 4 860 kb/s
Width : 1 280 pixels
Height : 534 pixels
Display aspect ratio : 2.40:1
Frame rate mode : Constant
Frame rate : 23.976 (24000/1001) FPS
Color space : YUV
Chroma subsampling : 4:2:0
Bit depth : 8 bits
Scan type : Progressive
Bits/(Pixel*Frame) : 0.297
Stream size : 4.12 GiB (79%)
Writing library : x264 core 148 r2705 3f5ed56
Encoding settings : cabac=1 / ref=12 / deblock=1:-3:-3 / analyse=0x3:0x133 / me=umh / subme=11 / psy=1 / psy_rd=1.05:0.05 / mixed_ref=1 / me_range=48 / chroma_me=1 / trellis=2 / 8x8dct=1 / cqm=0 / deadzone=21,11 / fast_pskip=0 / chroma_qp_offset=-3 / threads=22 / lookahead_threads=4 / sliced_threads=0 / nr=0 / decimate=0 / interlaced=0 / bluray_compat=0 / constrained_intra=0 / bframes=10 / b_pyramid=2 / b_adapt=2 / b_bias=0 / direct=3 / weightb=1 / open_gop=0 / weightp=2 / keyint=240 / keyint_min=23 / scenecut=40 / intra_refresh=0 / rc_lookahead=50 / rc=2pass / mbtree=0 / bitrate=4860 / ratetol=1.0 / qcomp=0.60 / qpmin=0 / qpmax=69 / qpstep=4 / cplxblur=20.0 / qblur=0.5 / vbv_maxrate=50000 / vbv_bufsize=62500 / nal_hrd=none / filler=0 / ip_ratio=1.40 / pb_ratio=1.30 / aq=3:0.80
Language : English
Default : Yes
Forced : No

Audio #1
ID : 2
Format : AC-3
Format/Info : Audio Coding 3
Format settings, Endianness : Big
Codec ID : A_AC3
Duration : 2 h 2 min
Bit rate mode : Constant
Bit rate : 448 kb/s
Channel(s) : 6 channels
Channel positions : Front: L C R, Side: L R, LFE
Sampling rate : 48.0 kHz
Frame rate : 31.250 FPS (1536 SPF)
Bit depth : 16 bits
Compression mode : Lossy
Stream size : 391 MiB (7%)
Title : Dub [License]
Language : Russian
Service kind : Complete Main
Default : Yes
Forced : No

Audio #2
ID : 3
Format : AC-3
Format/Info : Audio Coding 3
Format settings, Endianness : Big
Codec ID : A_AC3
Duration : 2 h 2 min
Bit rate mode : Constant
Bit rate : 640 kb/s
Channel(s) : 6 channels
Channel positions : Front: L C R, Side: L R, LFE
Sampling rate : 48.0 kHz
Frame rate : 31.250 FPS (1536 SPF)
Bit depth : 16 bits
Compression mode : Lossy
Stream size : 559 MiB (10%)
Title : Original
Language : English
Service kind : Complete Main
Default : No
Forced : No

Audio #3
ID : 4
Format : AC-3
Format/Info : Audio Coding 3
Format settings, Endianness : Big
Codec ID : A_AC3
Duration : 2 h 2 min
Bit rate mode : Constant
Bit rate : 224 kb/s
Channel(s) : 2 channels
Channel positions : Front: L R
Sampling rate : 48.0 kHz
Frame rate : 31.250 FPS (1536 SPF)
Bit depth : 16 bits
Compression mode : Lossy
Stream size : 196 MiB (4%)
Title : Commentary by Director Ridley Scott
Language : English
Service kind : Complete Main
Default : No
Forced : No

Text #1
ID : 5
Format : UTF-8
Codec ID : S_TEXT/UTF8
Codec ID/Info : UTF-8 Plain Text
Duration : 1 h 55 min
Bit rate : 0 b/s
Count of elements : 8
Stream size : 413 Bytes (0%)
Title : Forced [iTunes]
Language : Russian
Default : Yes
Forced : No

Text #2
ID : 6
Format : UTF-8
Codec ID : S_TEXT/UTF8
Codec ID/Info : UTF-8 Plain Text
Duration : 2 h 0 min
Bit rate : 67 b/s
Count of elements : 1331
Stream size : 59.3 KiB (0%)
Title : Full [iTunes]
Language : Russian
Default : No
Forced : No

Text #3
ID : 7
Format : UTF-8
Codec ID : S_TEXT/UTF8
Codec ID/Info : UTF-8 Plain Text
Duration : 1 h 55 min
Bit rate : 69 b/s
Count of elements : 862
Stream size : 58.5 KiB (0%)
Title : Full [Doctor Joker]
Language : Russian
Default : No
Forced : No

Text #4
ID : 8
Format : UTF-8
Codec ID : S_TEXT/UTF8
Codec ID/Info : UTF-8 Plain Text
Duration : 1 h 54 min
Bit rate : 43 b/s
Count of elements : 1451
Stream size : 36.6 KiB (0%)
Title : Full
Language : English
Default : No
Forced : No

Text #5
ID : 9
Format : UTF-8
Codec ID : S_TEXT/UTF8
Codec ID/Info : UTF-8 Plain Text
Duration : 1 h 54 min
Bit rate : 52 b/s
Count of elements : 1709
Stream size : 44.2 KiB (0%)
Title : SDH
Language : English
Default : No
Forced : No

Text #6
ID : 10
Format : UTF-8
Codec ID : S_TEXT/UTF8
Codec ID/Info : UTF-8 Plain Text
Duration : 1 h 54 min
Bit rate : 81 b/s
Count of elements : 1709
Stream size : 68.3 KiB (0%)
Title : SDH Colored
Language : English
Default : No
Forced : No

Menu
00:00:00.000 : en:00:00:00.000
00:04:47.662 : en:00:04:47.662
00:13:07.495 : en:00:13:07.495
00:18:11.924 : en:00:18:11.924
00:22:46.448 : en:00:22:46.448
00:27:51.169 : en:00:27:51.169
00:33:12.908 : en:00:33:12.908
00:37:18.736 : en:00:37:18.736
00:42:19.912 : en:00:42:19.912
00:47:43.694 : en:00:47:43.694
00:52:04.371 : en:00:52:04.371
00:55:56.270 : en:00:55:56.270
01:00:17.447 : en:01:00:17.447
01:06:20.643 : en:01:06:20.643
01:11:25.031 : en:01:11:25.031
01:16:35.883 : en:01:16:35.883
01:21:10.032 : en:01:21:10.032
01:28:18.793 : en:01:28:18.793
01:31:21.559 : en:01:31:21.559
01:34:52.437 : en:01:34:52.437
01:39:23.666 : en:01:39:23.666
01:43:35.876 : en:01:43:35.876
01:50:49.309 : en:01:50:49.309
01:55:27.754 : en:01:55:27.754

pb.wtf



Скачать Чужой: Завет через торрент http://s019.radikal.ru/i621/1708/24/9048df2b7fe7.jpg Скачать фильм Чужой: Завет через торрент бесплантно в хорошем качестве Описание: 2104 год. Колониальный корабль "Завет" с живыми людьми на борту бороздит просторы большого космоса на пути к неосвоенной целине. ... 10 10 24
Info! Золотая раздача, скачанное не засчитывается.
Торрент: Зарегистрирован [2017-08-31 20:33] · скачан: 1 307 раз
Статус: √ проверено
Размер: 5.24 GB
Как cкачать? Как скачать Чужой: Завет через торрент | qTorrent

% Раздел Тема Автор DL S | L
Фильмы [HD 720p, 1080p] (Хороший звук DUB, MVO) [ 9.19 GB ] Чужой: Завет / Alien: Covenant [2017 BDRip 1080p HEVC ()] Мичман37 Скачать
1 | 0
Фильмы 2017 [DVDrip, WEB-DLRip, HDrip] (DUB, MVO) [ 5.01 GB ] Чужой: Завет / Alien: Covenant [2017 WEB-DLRip-AVC Dub MVO 5 x AVO][Open Matte] от ExKinoRay morfyi Скачать
2 | 0
Ultra HD (UHD: 2K, 4K, 8K) — видео сверхвысокой чёткости [ 20.22 GB ] Чужой: Завет / Alien: Covenant [2017 UHD BDRip 2160p] DUB sheker187 Скачать
1 | 0
Фильмы (Blu-ray, BD-Remux, HDDVD) [ 45.91 GB ] Чужой: Завет / Alien: Covenant [2017 BD Remux 1080p] DUB + MVO + 4xAVO sheker187 Скачать
1 | 0
Фильмы 2017 [DVDrip, WEB-DLRip, HDrip] (DUB, MVO) [ 2.16 GB ] Чужой: Завет / Alien: Covenant [2017 BDRip-AVC] DUB [] - ExKinoRay Enigma2010 Скачать
4 | 0
Ultra HD (UHD: 2K, 4K, 8K) — видео сверхвысокой чёткости [ 43.99 GB ] Чужой: Завет / Alien: Covenant [2017 UHD BDRemux 2160] DUB+AVO [] bober100 Скачать
2 | 0
Фильмы (HD 720p, 1080p) (48-60 fps) [ 4.5 GB ] Чужой: Завет / Alien: Covenant [2017 BDRip 720p 60 fps от еnvy / NNNB] DUB еnvy Скачать
16 | 0

28-11-2019 20:33  

Отключить всю рекламу на сайте

02-09-2017 08:08 Чужой: Завет Скачать торрент  

Фильм оставил намного больше вопросов чем прометей,но все равно рекомендую к просмотруpb.wtf



    Дорогой пользователь! Огромная просьба, поблагодарите релизера, оцените раздачу и оставьте свои комментарий, если Вы скачали Чужой: Завет через торрент бесплатно! Внесите свою лепту в развитие PiratBit!
    Комментировать посты могут только пользователи прошедшие не сложную регистрацию
    Показать сообщения:    

    Чужой: Завет через торрент
    Скачать бесплатно Чужой: Завет
    Чужой: Завет скачать торрент
    Чужой: Завет смотреть онлайн
    Cкачать фильм Чужой: Завет бесплатно
    Чужой: Завет скачать торрент в хорошем качестве
    Чужой: Завет смотреть онлайн бесплатно в хорошем качестве


    Вы не можете начинать темы
    Вы не можете отвечать на сообщения
    Вы не можете редактировать свои сообщения
    Вы не можете удалять свои сообщения
    Вы не можете голосовать в опросах
    Вы не можете прикреплять файлы к сообщениям
    Вы можете скачивать файлы