Всегда рабочее зеркало без VPN и Proxy просто перед .vidak.icu напиши любое слово или цифру, Пример http://ljsd.vidak.icu

MVO

Лицензия

1 сезон

1

1 сезон

iTunes

1 сезон

13

1 сезон

Deluxe

pack

Рекомендуем

Пиратка

30

ВАЖНО

RePack

MK11

RePack

jed

RePack

fifa19

RePack

RDR2

RePack

NEED FOR SPEED™ PAYBACK

Кинопоиск HD

6 сезон

 Острые козырьки 6 сезон

Все сериалы

все сериалы на PB.wtf

RePack

FAR CRY 5

Anonymous, нам критически не хватает 2100 руб. на оплату серверов и переферии за МАЙ, помоги нам пожалуйста, вся надежда только на тебя. В благодарность мы отключим тебе всю рекламу на сайте!

×
  
Magnet ссылка

Последняя ярость / Last Rampage (Дуайт Х. Литтл) [2017, Драма, HDRip-AVC] MVO [iTunes] pb.wtf

Последняя ярость через торрент pb.wtf

Раздают: 1 [ 0 KB/s ]
Размер: 1.45 GB | Добавлен: 1 мес. 9 д. назад | Торрент скачан:57 раз
Смотреть онлайн Последняя ярость | Скачать    Ребята, помогите собрать деньги на оплату серверов!!!

25-09-2017 06:02 Последняя ярость Скачать торрент  

Последняя ярость
Last Rampage

Год выпуска: 2017
Страна: США
Жанр: Драма
Продолжительность: 01:32:34
Перевод: Профессиональное (многоголосое) | iTunes
Субтитры: отсутствуют

Режиссер: Дуайт Х. Литтл

rating

В ролях: Хезер Грэм, Роберт Патрик, Джейсон Джеймс Рихтер, Молли К. Куинн, Брюс Дэвисон, Джон Хёрд, Уильям Шокли, Крис Браунинг, Меган Галлахер, Алекс МакНиколл

Описание: Драматический фильм от режиссера «Беглого огня» Дуайта Х. Литтла. Фильм «Последняя ярость» (Last Rampage) основан на реальных событиях: он рассказывает о побеге серийного убийцы Гэри Тайсона из тюрьмы летом 1978 года.

Качество: HDRip-AVC
Формат: MKV

Видео: 1024x428 at 23.976 fps, x264@L4.1, ~1861 kbps
Аудио: 48 kHz, AC3 Dolby Digital, 3/2 (L, C, R, l, r) + LFE ch, ~384 Kbps

[x264] frame I:1204 Avg QP:14.79 size: 52513
[x264] frame P:32724 Avg QP:16.47 size: 21193
[x264] frame B:99235 Avg QP:18.25 size: 5385

General
Unique ID : 19318421843223092472897374115719023034 (0xE8897BBE20B114E21115DC00EF009BA)
Complete name : I:Last.Rampage.2017.x264.mkv
Format : Matroska
Format version : Version 4
File size : 1.45 GiB
Duration : 1 h 32 min
Overall bit rate : 2 243 kb/s
Encoded date : UTC 2022-05-16 13:17:56
Writing application : mkvmerge v63.0.0 ('Everything') 64-bit
Writing library : libebml v1.4.2 + libmatroska v1.6.4
Cover : Yes
Attachments : cover.jpg / cover 2.jpg

Video
ID : 1
Format : AVC
Format/Info : Advanced Video Codec
Format profile : High@L4.1
Format settings : CABAC / 12 Ref Frames
Format settings, CABAC : Yes
Format settings, Reference : 12 frames
Codec ID : V_MPEG4/ISO/AVC
Duration : 1 h 32 min
Bit rate : 1 861 kb/s
Width : 1 024 pixels
Height : 428 pixels
Display aspect ratio : 2.40:1
Frame rate mode : Constant
Frame rate : 23.976 (24000/1001) FPS
Color space : YUV
Chroma subsampling : 4:2:0
Bit depth : 8 bits
Scan type : Progressive
Bits/(Pixel*Frame) : 0.177
Stream size : 1.20 GiB (83%)
Title : -=DoMiNo=-
Writing library : x264 core 163
Encoding settings : cabac=1 / ref=12 / deblock=1:-2:-2 / analyse=0x3:0x133 / me=umh / subme=10 / psy=1 / psy_rd=1.05:0.05 / mixed_ref=1 / me_range=32 / chroma_me=1 / trellis=2 / 8x8dct=1 / cqm=0 / deadzone=21,11 / fast_pskip=0 / chroma_qp_offset=-3 / threads=17 / lookahead_threads=3 / sliced_threads=0 / nr=0 / decimate=0 / interlaced=0 / bluray_compat=0 / constrained_intra=0 / bframes=10 / b_pyramid=2 / b_adapt=2 / b_bias=0 / direct=3 / weightb=1 / open_gop=0 / weightp=2 / keyint=240 / keyint_min=24 / scenecut=40 / intra_refresh=0 / rc_lookahead=100 / rc=2pass / mbtree=0 / bitrate=1861 / ratetol=1.0 / qcomp=0.65 / qpmin=0 / qpmax=69 / qpstep=4 / cplxblur=20.0 / qblur=0.5 / vbv_maxrate=50000 / vbv_bufsize=62500 / nal_hrd=none / filler=0 / ip_ratio=1.40 / pb_ratio=1.30 / aq=3:0.80
Language : English
Default : Yes
Forced : No

Audio
ID : 2
Format : AC-3
Format/Info : Audio Coding 3
Commercial name : Dolby Digital
Codec ID : A_AC3
Duration : 1 h 32 min
Bit rate mode : Constant
Bit rate : 384 kb/s
Channel(s) : 6 channels
Channel layout : L R C LFE Ls Rs
Sampling rate : 48.0 kHz
Frame rate : 31.250 FPS (1536 SPF)
Bit depth : 16 bits
Compression mode : Lossy
Stream size : 254 MiB (17%)
Title : MVO_ iTunes
Language : Russian
Service kind : Complete Main
Default : Yes
Forced : Yes

Menu
00:00:00.000 : :Chapter 01
00:07:42.003 : :Chapter 02
00:18:03.040 : :Chapter 03
00:28:04.057 : :Chapter 04
00:38:18.504 : :Chapter 05
00:47:09.493 : :Chapter 06
00:54:22.968 : :Chapter 07
01:00:41.179 : :Chapter 08
01:06:35.950 : :Chapter 09
01:10:53.082 : :Chapter 10
01:21:17.706 : :Chapter 11
01:30:27.964 : :Chapter 12
pb.wtf



Скачать Последняя ярость через торрент https://i117.fastpic.org/big/2022/0516/d0/8868676338f90e6451a58c5308e667d0.jpg Скачать, смотреть онлайн Последняя ярость бесплантно в хорошем качестве Описание: Драматический фильм от режиссера «Беглого огня» Дуайта Х. Литтла. Фильм «Последняя ярость» (Last Rampage) основан на реальных ... 9.9 10 8
Торрент: Зарегистрирован [2022-05-16 13:28] · скачан: 57 раз
Статус: √ проверено
Размер: 1.45 GB
Как cкачать? Как скачать Последняя ярость через торрент | UTorrent

% Раздел Тема Автор DL S | L
Фильмы [HD 720p, 1080p] (Хороший звук DUB, MVO) [ 8.1 GB ] Последняя ярость / Last Rampage [2017 BDRip 1080p] MVO bober100 Скачать
7 | 0
Фильмы 2017 [DVDrip, WEB-DLRip, HDrip] (DUB, MVO) [ 1.46 GB ] Последняя ярость / Last Rampage [2017 HDRip] MVO bober100 Скачать
3 | 0

28-11-2019 20:33  

Отключить всю рекламу на сайте

    Дорогой пользователь! Огромная просьба, поблагодарите релизера, оцените раздачу и оставьте свои комментарий, если Вы скачали Последняя ярость через торрент бесплатно!
    Комментировать посты могут только пользователи прошедшие не сложную регистрацию
    Показать сообщения:    

    Последняя ярость через торрент
    Скачать бесплатно Последняя ярость
    Последняя ярость скачать торрент
    Последняя ярость смотреть онлайн
    Cкачать фильм Последняя ярость бесплатно
    Последняя ярость скачать торрент в хорошем качестве
    Последняя ярость смотреть онлайн бесплатно в хорошем качестве


    Вы не можете начинать темы
    Вы не можете отвечать на сообщения
    Вы не можете редактировать свои сообщения
    Вы не можете удалять свои сообщения
    Вы не можете голосовать в опросах
    Вы не можете прикреплять файлы к сообщениям
    Вы можете скачивать файлы