Ссылка на приватное зеркало нашего сайта всего за 1$. Внимание количество ограничено!!!

2 сезон

iTunes

1 сезон

1

iTunes

iTunes

iTunes

1 сезон

RePack

30

ИГРА 18+

pack

ВАЖНО

!!Акция!!

Alien_RageХит недели

RePack

MK11
pack

Забери бонус

RePack

jed

!!Акция!!

Alien_Rage

RePack

fifa19

RePack

Assassins Creed: Odyssey

RePack

NEED FOR SPEED™ PAYBACK

4 сезон

9 сезон

Бесстыжие 9 сезон

Все сериалы

все сериалы на PB.wtf

RePack

FAR CRY 5
  

Могучие рейнджеры / Power Rangers (Дин Израэлайт / Dean Israelite) [2017, США, Гонконг, Япония, фантастика, боевик, приключения, BDRip-AVC] Dub [Лицензия] pb.wtf

Могучие рейнджеры через торрент pb.wtf

Раздают: 1 [ 332 KB/s ]
Размер: 2.9 GB | Добавлен: 2 года 11 мес. назад | Торрент скачан:148 раз
Скачать  

26-09-2017 21:27 Могучие рейнджеры Скачать торрент  

Могучие рейнджеры
Power Rangers

«Back to action!»


Страна: США, Гонконг, Япония, Мексика, Канада, Новая Зеландия
Жанр: фантастика, боевик, приключения

Год выпуска: 2017
Продолжительность: 02:03:58

Перевод: Профессиональный (полное дублирование) [Blu-ray EUR]
Субтитры: русские (форсированные, полные), английские (полные, SDH, SDH цветные)
Оригинальная аудиодорожка: английский

Режиссер: Дин Израэлайт / Dean Israelite

В ролях: Дакре Монтгомери, Наоми Скотт, АрДжей Сайлер, Луди Линь, Бекки Джи, Элизабет Бэнкс, Брайан Крэнстон, Билл Хейдер, Мэтт Шайвли, Коуди Кирсли, Дэвид Денман, Роберт Молони

Описание:
Пять обычных старшеклассников узнают, что их маленький город Энджел Гроув и весь мир находятся на грани уничтожения инопланетной угрозой. Избранные судьбой наши герои быстро понимают, что они единственные, кто может спасти планету.



Релиз:

Автор рипа: stalkerok | Моя группа

Сэмпл

Качество видео: BDRip-AVC [Power Rangers (2017) Blu-ray Disc - BLUEBIRD]
Формат видео: MKV
Видео кодек: AVC
Аудио кодек: AC3
Видео: 2465 Кбит/сек, 1104*460 (2,40:1), в 23,976 (24000/1001) кадра/сек, AVC
Аудио #1: русский, 448 Кбит/сек, 48,0 КГц, 6 каналов, AC-3
Аудио #2: английский, 448 Кбит/сек, 48,0 КГц, 6 каналов, AC-3
Навигация по главам: есть

x264 [info]: frame I:1312 Avg QP:14.93 size: 69604
x264 [info]: frame P:48545 Avg QP:18.65 size: 23646
x264 [info]: frame B:128492 Avg QP:20.94 size: 8113

Общее
Уникальный идентификатор : 246180229654948341915240717828060594345 (0xB934966D028932C3BCD6DACBD233C0A9)
Полное имя : M:\!Rips2017\Power Rangers\Power.Rangers.2017.BDRip-AVC.RUS.ENG.stalkerok.new-team.mkv
Формат : Matroska
Версия формата : Version 4 / Version 2
Размер файла : 2,90 Гбайт
Продолжительность : 2 ч. 3 м.
Общий поток : 3352 Кбит/сек
Название фильма : Power Rangers (2017) (Rip by stalkerok)
Дата кодирования : UTC 2017-10-26 10:15:13
Программа кодирования : mkvmerge v8.6.1 ('Flying') 64bit
Библиотека кодирования : libebml v1.3.3 + libmatroska v1.4.4

Видео
Идентификатор : 1
Формат : AVC
Формат/Информация : Advanced Video Codec
Профиль формата : High@L4.1
Параметр CABAC формата : Да
Параметр ReFrames формата : 14 кадров
Идентификатор кодека : V_MPEG4/ISO/AVC
Продолжительность : 2 ч. 3 м.
Битрейт : 2465 Кбит/сек
Ширина : 1104 пикселя
Высота : 460 пикселей
Соотношение сторон : 2,40:1
Режим частоты кадров : Постоянный
Частота кадров : 23,976 (24000/1001) кадра/сек
Цветовое пространство : YUV
Субдискретизация насыщенности : 4:2:0
Битовая глубина : 8 бит
Тип развёртки : Прогрессивная
Бит/(Пиксели*Кадры) : 0.202
Размер потока : 2,13 Гбайт (73%)
Заголовок : Power Rangers (2017) (Rip by stalkerok)
Библиотека кодирования : x264 core 150 r2833kMod df79067
Настройки программы : cabac=1 / ref=14 / deblock=1:-3:-2 / analyse=0x3:0x133 / me=umh / subme=10 / psy=1 / fade_compensate=0.00 / psy_rd=1.00:0.00 / mixed_ref=1 / me_range=32 / chroma_me=1 / trellis=2 / 8x8dct=1 / cqm=0 / deadzone=21,11 / fast_pskip=0 / chroma_qp_offset=-2 / threads=12 / lookahead_threads=3 / sliced_threads=0 / nr=0 / decimate=0 / interlaced=0 / bluray_compat=0 / constrained_intra=0 / bframes=14 / b_pyramid=2 / b_adapt=2 / b_bias=0 / direct=3 / weightb=1 / open_gop=0 / weightp=2 / keyint=240 / keyint_min=23 / scenecut=40 / intra_refresh=0 / rc_lookahead=60 / rc=2pass / mbtree=0 / bitrate=2465 / ratetol=1.0 / qcomp=0.65 / qpmin=0 / qpmax=69 / qpstep=4 / cplxblur=20.0 / qblur=0.5 / vbv_maxrate=50000 / vbv_bufsize=62500 / nal_hrd=none / filler=0 / ip_ratio=1.40 / pb_ratio=1.30 / aq=3:0.80
Default : Да
Forced : Нет

Аудио #1
Идентификатор : 2
Формат : AC-3
Формат/Информация : Audio Coding 3
Расширение режима : CM (complete main)
Параметр Endianness формата : Big
Идентификатор кодека : A_AC3
Продолжительность : 2 ч. 3 м.
Вид битрейта : Постоянный
Битрейт : 448 Кбит/сек
Каналы : 6 каналов
Расположение каналов : Front: L C R, Side: L R, LFE
Частота : 48,0 КГц
Частота кадров : 31,250 кадров/сек (1536 spf)
Метод сжатия : С потерями
Размер потока : 397 Мбайт (13%)
Язык : Russian
Default : Да
Forced : Нет

Аудио #2
Идентификатор : 3
Формат : AC-3
Формат/Информация : Audio Coding 3
Расширение режима : CM (complete main)
Параметр Endianness формата : Big
Идентификатор кодека : A_AC3
Продолжительность : 2 ч. 3 м.
Вид битрейта : Постоянный
Битрейт : 448 Кбит/сек
Каналы : 6 каналов
Расположение каналов : Front: L C R, Side: L R, LFE
Частота : 48,0 КГц
Частота кадров : 31,250 кадров/сек (1536 spf)
Метод сжатия : С потерями
Размер потока : 397 Мбайт (13%)
Язык : English
Default : Нет
Forced : Нет

Текст #1
Идентификатор : 4
Формат : UTF-8
Идентификатор кодека : S_TEXT/UTF8
Идентификатор кодека/Информация : UTF-8 Plain Text
Продолжительность : 1 ч. 51 м.
Битрейт : 2 бит/сек
Count of elements : 42
Размер потока : 1,87 Кбайт (0%)
Заголовок : Forced
Язык : Russian
Default : Да
Forced : Нет

Текст #2
Идентификатор : 5
Формат : UTF-8
Идентификатор кодека : S_TEXT/UTF8
Идентификатор кодека/Информация : UTF-8 Plain Text
Продолжительность : 1 ч. 55 м.
Битрейт : 99 бит/сек
Count of elements : 1660
Размер потока : 83,8 Кбайт (0%)
Язык : Russian
Default : Нет
Forced : Нет

Текст #3
Идентификатор : 6
Формат : UTF-8
Идентификатор кодека : S_TEXT/UTF8
Идентификатор кодека/Информация : UTF-8 Plain Text
Продолжительность : 1 ч. 52 м.
Битрейт : 56 бит/сек
Count of elements : 1623
Размер потока : 46,7 Кбайт (0%)
Язык : English
Default : Нет
Forced : Нет

Текст #4
Идентификатор : 7
Формат : UTF-8
Идентификатор кодека : S_TEXT/UTF8
Идентификатор кодека/Информация : UTF-8 Plain Text
Продолжительность : 1 ч. 55 м.
Битрейт : 67 бит/сек
Count of elements : 1889
Размер потока : 56,9 Кбайт (0%)
Заголовок : SDH
Язык : English
Default : Нет
Forced : Нет

Текст #5
Идентификатор : 8
Формат : UTF-8
Идентификатор кодека : S_TEXT/UTF8
Идентификатор кодека/Информация : UTF-8 Plain Text
Продолжительность : 1 ч. 55 м.
Битрейт : 98 бит/сек
Count of elements : 1900
Размер потока : 82,7 Кбайт (0%)
Заголовок : SDH COLORED
Язык : English
Default : Нет
Forced : Нет

Меню
00:00:00.000 : en:Chapter 1
00:11:43.536 : en:Chapter 2
00:22:34.186 : en:Chapter 3
00:30:52.308 : en:Chapter 4
00:40:06.487 : en:Chapter 5
00:49:44.564 : en:Chapter 6
01:01:31.187 : en:Chapter 7
01:13:15.015 : en:Chapter 8
01:24:13.339 : en:Chapter 9
01:34:11.687 : en:Chapter 10
01:45:09.303 : en:Chapter 11
01:53:45.318 : en:Chapter 12
скриншот   скриншот   скриншот   скриншот   скриншот   скриншот  
pb.wtf



Скачать Могучие рейнджеры через торрент http://i6.imageban.ru/out/2017/09/18/2ff75c0c358795c5946784cc1680714d.png Скачать фильм Могучие рейнджеры через торрент бесплантно в хорошем качестве Описание:Пять обычных старшеклассников узнают, что их маленький город Энджел Гроув и весь мир находятся на грани уничтожения инопланетной ... 9.2 10 13
Info! Золотая раздача, скачанное не засчитывается.
Торрент: Зарегистрирован [2017-10-26 10:48] · скачан: 148 раз
Статус: √ проверено
Размер: 2.9 GB
Как cкачать? Как скачать Могучие рейнджеры через торрент | qTorrent

% Раздел Тема Автор DL S | L
Ultra HD (UHD: 2K, 4K, 8K) — видео сверхвысокой чёткости [ 46.1 GB ] Могучие рейнджеры / Power Rangers [2017 UHD BDRemux 2160p] + AVO [Л. Володарский] sheker187 Скачать
1 | 0
Фильмы (WEB-DL 720p, 1080p) [ 5.03 GB ] Могучие рейнджеры / Power Rangers [2017 WEBRip 1080p ] [Локализованная версия] DUB [] bober100 Скачать
1 | 0
Ultra HD (UHD: 2K, 4K, 8K) — видео сверхвысокой чёткости [ 41.44 GB ] Могучие рейнджеры / Power Rangers [2017 UHD BDRemux 2160p] [] sheker187 Скачать
1 | 0
Фильмы (Blu-ray, BD-Remux, HDDVD) [ 26.49 GB ] Могучие рейнджеры / Power Rangers [2017 BD Remux 1080p] AVO [Володарский] +DUB [] bober100 Скачать
1 | 0
Фильмы [HD 720p, 1080p] (Хороший звук DUB, MVO) [ 5.07 GB ] Могучие рейнджеры / Power Rangers [2017 BDRip 1080p [HEVC] ()] Мичман37 Скачать
2 | 0
Фильмы 2017 [DVDrip, WEB-DLRip, HDrip] (DUB, MVO) [ 2.18 GB ] Могучие рейнджеры / Power Rangers [2017 BDRip] - [] Twi7ter Скачать
1 | 0
Фильмы 2017 [DVDrip, WEB-DLRip, HDrip] (DUB, MVO) [ 1.46 GB ] Могучие рейнджеры / Power Rangers [2017 BDRip] - [] Twi7ter Скачать
2 | 0


Последний раз редактировалось: sokol_ok (2017-10-26 10:48), всего редактировалось 1 раз

28-11-2019 20:33  

Отключить всю рекламу на сайте

26-09-2017 21:31 Могучие рейнджеры Скачать торрент  

оценки конечно не очень, но если учитывать, что я смотрел давно сериал стремный и мне вроде нравилось, посмотреть интересно, ностальжи:)pb.wtf



26-09-2017 21:36 Могучие рейнджеры Скачать торрент  

DavidLynch, мои мысли спёр)
А ещё учитывая отзывы на последних трансформеров и пиратов, считаю, что этот фильм может быть даже лучше. Жаль в прокате провалился.pb.wtf



28-09-2017 11:17 Могучие рейнджеры Скачать торрент  

sokol_ok писал(а):

DavidLynch, мои мысли спёр)
А ещё учитывая отзывы на последних трансформеров и пиратов, считаю, что этот фильм может быть даже лучше. Жаль в прокате провалился.

Трансформеры охрененный фильм получился, но его надо смотреть в IMAX 3D, а не дома на компе.pb.wtf



26-10-2017 10:49 Могучие рейнджеры Скачать торрент  

Замена на звук с Blu-ray EURpb.wtf



    Дорогой пользователь! Огромная просьба, поблагодарите релизера, оцените раздачу и оставьте свои комментарий, если Вы скачали Могучие рейнджеры через торрент бесплатно! Внесите свою лепту в развитие PiratBit!
    Комментировать посты могут только пользователи прошедшие не сложную регистрацию
    Показать сообщения:    

    Могучие рейнджеры через торрент
    Скачать бесплатно Могучие рейнджеры
    Могучие рейнджеры скачать торрент
    Могучие рейнджеры смотреть онлайн
    Cкачать фильм Могучие рейнджеры бесплатно
    Могучие рейнджеры скачать торрент в хорошем качестве
    Могучие рейнджеры смотреть онлайн бесплатно в хорошем качестве


    Вы не можете начинать темы
    Вы не можете отвечать на сообщения
    Вы не можете редактировать свои сообщения
    Вы не можете удалять свои сообщения
    Вы не можете голосовать в опросах
    Вы не можете прикреплять файлы к сообщениям
    Вы можете скачивать файлы