Всегда рабочее зеркало без VPN и Proxy просто перед .vidak.icu напиши любое слово или цифру, Пример http://e1is.vidak.icu

MVO

Лицензия

1 сезон

1

1 сезон

iTunes

1 сезон

13

1 сезон

Deluxe

pack

Рекомендуем

Repack

30

ВАЖНО

RePack

MK11

RePack

jed

RePack

fifa19

RePack

RDR2

RePack

NEED FOR SPEED™ PAYBACK

Кинопоиск HD

6 сезон

 Острые козырьки 6 сезон

Все сериалы

все сериалы на PB.wtf

RePack

FAR CRY 5
  
Magnet ссылка

Плохой хороший полицейский 2 / Bon Cop Bad Cop 2 (Ален Дерошер) [2017, боевик, комедия, криминал, WEB-DL 720p] MVO [@[email protected]] pb.wtf

Плохой хороший полицейский 2 через торрент pb.wtf

Размер: 3.95 GB | Добавлен: 4 года 9 мес. назад | Торрент скачан:112 раз
Смотреть онлайн Плохой хороший полицейский 2 | Скачать    Ребята, помогите собрать деньги на оплату серверов!!!

03-10-2017 17:00 Плохой хороший полицейский 2 Скачать торрент  

Плохой хороший полицейский 2 / Bon Cop Bad Cop 2
Год выпуска: 2017
Страна: Канада
Жанр: боевик, комедия, криминал
Продолжительность: 02:07:43
Перевод: Любительский (многоголосый) - [@[email protected]]
Субтитры: отсутствуют

Режиссер: Ален Дерошер

rating

В ролях:

Колм Фиор, Люси Лорье, Сара-Джинн Лабросс, Эрик Кнудсен, Патрик Уард Ноам Дженкинс Катрин Сен-Лоран Андреас Апергис Хамза Хак Мо Жюди-Ламур

Описание:

Восемь лет прошло с тех пор как полицейские Мартин Уорд и Дэвид Бучард сотрудничали, чтобы раскрыть серию жестоких убийств. Двое совсем непохожих людей всё же остались друзьями, но вот уже год они не поддерживали связь. Когда мошенники совсем распоясались, и без стыда и совести начинают угонять машины, давние друзья понимают, что им снова пора объединить свои силы, чтобы поймать бандитов.

Качество: WEB-DL 720p
Формат: MKV
Видео кодек: H.264
Аудио кодек: AC3

Видео: 4038 kb/s 1280x536
Аудио: Русский, (AC3, 2 ch, 384 Кбит/с)

скриншот   скриншот   скриншот  

Общее
Уникальный идентификатор : 221008355470213839359994783574716214040 (0xA644A935B8E4C4B39A3BEE4FFFF66B18)
Полное имя : D:\Bon.Cop.Bad.Cop.2.2017.P.WEB-DL.72Op_KOSHARA.mkv
Формат : Matroska
Версия формата : Version 2
Размер файла : 3,95 Гбайт
Продолжительность : 2 ч. 7 м.
Режим общего битрейта : Переменный
Общий поток : 4424 Кбит/сек
Дата кодирования : UTC 2017-10-03 13:47:12
Программа кодирования : mkvmerge v8.3.0 ('Over the Horizon') 64bit
Библиотека кодирования : libebml v1.3.1 + libmatroska v1.4.2

Видео
Идентификатор : 1
Формат : AVC
Формат/Информация : Advanced Video Codec
Профиль формата : [email protected]
Параметр CABAC формата : Да
Параметр ReFrames формата : 12 кадров
Идентификатор кодека : V_MPEG4/ISO/AVC
Продолжительность : 2 ч. 7 м.
Вид битрейта : Переменный
Битрейт : 4038 Кбит/сек
Максимальный битрейт : 4500 Кбит/сек
Ширина : 1280 пикселей
Высота : 536 пикселей
Соотношение сторон : 2,40:1
Режим частоты кадров : Постоянный
Частота кадров : 23,976 (24000/1001) кадра/сек
Стандарт вещания : Component
Цветовое пространство : YUV
Субдискретизация насыщенности : 4:2:0
Битовая глубина : 8 бит
Тип развёртки : Прогрессивная
Бит/(Пиксели*Кадры) : 0.245
Размер потока : 3,60 Гбайт (91%)
Default : Да
Forced : Нет
Цветовой диапазон : Limited
Основные цвета : BT.709
Характеристики трансфера : BT.709
Коэффициенты матрицы : BT.709

Аудио
Идентификатор : 2
Формат : AC-3
Формат/Информация : Audio Coding 3
Расширение режима : CM (complete main)
Параметр Endianness формата : Big
Идентификатор кодека : A_AC3
Продолжительность : 2 ч. 7 м.
Вид битрейта : Постоянный
Битрейт : 384 Кбит/сек
Каналы : 2 канала
Расположение каналов : Front: L R
Частота : 48,0 КГц
Частота кадров : 31,250 кадров/сек (1536 spf)
Метод сжатия : С потерями
Размер потока : 351 Мбайт (9%)
Default : Да
Forced : Нет
pb.wtf



Скачать Плохой хороший полицейский 2 через торрент http://s013.radikal.ru/i322/1710/3b/4a1e406807c8.jpg Скачать, смотреть онлайн Плохой хороший полицейский 2 бесплантно в хорошем качестве Описание: Восемь лет прошло с тех пор как полицейские Мартин Уорд и Дэвид Бучард сотрудничали, чтобы раскрыть серию жестоких убийств. Двое ... 9.8 10 6
Торрент: Зарегистрирован [2017-10-03 17:00] · скачан: 112 раз
Статус: T временная
Размер: 3.95 GB
Как cкачать? Как скачать Плохой хороший полицейский 2 через торрент | UTorrent

% Раздел Тема Автор DL S | L
T Релизы по Парсеру [Игры, Сериалы и Фильмы и другое...] [ 4.69 GB ] Плохой хороший полицейский 2 / Bon Cop Bad Cop 2 [2017 WEB-DL 1080p] MVO [@[email protected]] bober100 Скачать
1 | 0
T Релизы по Парсеру [Игры, Сериалы и Фильмы и другое...] [ 1.37 GB ] Плохой хороший полицейский 2 / Bon Cop Bad Cop 2 [2017 WEB-DLRip] MVO [@[email protected]] bober100 Скачать
1 | 0
T Релизы по Парсеру [Игры, Сериалы и Фильмы и другое...] [ 2.05 GB ] Плохой хороший полицейский 2 / Bon Cop Bad Cop 2 [2017 WEB-DLRip] MVO [@[email protected]] bober100 Скачать
1 | 0

28-11-2019 20:33  

Отключить всю рекламу на сайте

14-12-2017 18:03 Плохой хороший полицейский 2 Скачать торрент  

    Дорогой пользователь! Огромная просьба, поблагодарите релизера, оцените раздачу и оставьте свои комментарий, если Вы скачали Плохой хороший полицейский 2 через торрент бесплатно!
    Комментировать посты могут только пользователи прошедшие не сложную регистрацию
    Показать сообщения:    

    Плохой хороший полицейский 2 через торрент
    Скачать бесплатно Плохой хороший полицейский 2
    Плохой хороший полицейский 2 скачать торрент
    Плохой хороший полицейский 2 смотреть онлайн
    Cкачать фильм Плохой хороший полицейский 2 бесплатно
    Плохой хороший полицейский 2 скачать торрент в хорошем качестве
    Плохой хороший полицейский 2 смотреть онлайн бесплатно в хорошем качестве


    Вы не можете начинать темы
    Вы не можете отвечать на сообщения
    Вы не можете редактировать свои сообщения
    Вы не можете удалять свои сообщения
    Вы не можете голосовать в опросах
    Вы не можете прикреплять файлы к сообщениям
    Вы можете скачивать файлы