Ссылка на приватное зеркало нашего сайта всего за 1$. Внимание количество ограничено!!!

2 сезон

iTunes

1 сезон

1

2 сезон

2 сезон

iTunes

1 сезон

RePack

30

Ultimate

ВАЖНО

ИГРА 18+

pack

RePack

MK11
pack

Забери бонус

RePack

jed

!!Акция!!

Alien_Rage

RePack

fifa19

RePack

Assassins Creed: Odyssey

RePack

NEED FOR SPEED™ PAYBACK

4 сезон

9 сезон

Бесстыжие 9 сезон

Все сериалы

все сериалы на PB.wtf

RePack

FAR CRY 5
  

Доктор Рихтер / Сезон: 1 / Серии 1-24 из 24 (Андрей Прошкин, Илья Казанков) [2016 , драма, детектив, HDTV 1080p] R.G.Generalfilm pb.wtf

Доктор Рихтер через торрент pb.wtf

Размер: 62.35 GB | Добавлен: 2 года 11 мес. назад | Торрент скачан:60 раз
Скачать  

15-11-2017 16:45 Доктор Рихтер Скачать торрент  

Доктор Рихтер


Год выпуска: 2016

Страна: Россия
Жанр: драма, детектив
Продолжительность: 00:51:50
Перевод: Не требуется [Русский]
Режиссер: Андрей Прошкин, Илья Казанков
В ролях:

Алексей Серебряков (Андрей Александрович Рихтер, заведующий лечебно-диагностическим отделением), Дмитрий Ендальцев (Калинин, хирург), Полина Чернышова (Ольга Ходасевич, иммунолог), Павел Чинарёв (Руслан Егоршин, невролог), Анна Михалкова (Елизавета Никольская, эндокринолог и заведующая клиникой), Виталий Хаев (Иван Родионов, онколог, друг Рихтера), Александр Яценко (Григорий Филин, миллионер, жертвующий клинике большие суммы денег), Мария Миронова (юрист и бывшая гражданская жена Рихтера), Екатерина Вилкова, Александр Робак, Ирина Пегова, Дарья Екамасова
Описание:
Городская клиническая больница N 100. Заведующий лечебно-диагностическим отделением Андрей Александрович Рихтер вместе с командой расследует сложные медицинские случаи, с которыми не справились другие врачи.

Качество: HDTV 1080p by
Формат: MKV
Видео кодек: AVC
Аудио кодек: AC3
Видео: AVC, 1920x1080 (16:9), 7050 kbps, 25 fps, 0,136 bpp
Аудио: AC3 / 2.0 / 48 kHz / 192 kbps /
General
Unique ID : 252897670833986773801217169999072226534 (0xBE4251D8AD9B240DBB02B7D925966CE6)
Complete name : E:\Doktor Rixter.2017.HDTV 1080P Generalfilm\Doktor Rixter.s01.e02.2017.HDTV 1080p.by.White Smoke.R.G.Generalfilm.mkv
Format : Matroska
Format version : Version 4 / Version 2
File size : 2.62 GiB
Duration : 51 min
Overall bit rate mode : Constant
Overall bit rate : 7 228 kb/s
Movie name : Doktor Rixter.s01.e02.2017.HDTV 1080p.by.White Smoke.R.G.Generalfilm.mkv
Encoded date : UTC 2017-11-15 15:39:52
Writing application : mkvmerge v6.8.0 ('Theme for Great Cities') 64bit built on Mar 2 2014 21:34:26
Writing library : libebml v1.3.0 + libmatroska v1.4.1

Video
ID : 1
Format : AVC
Format/Info : Advanced Video Codec
Format profile : High@L4.1
Format settings, CABAC : Yes
Format settings, ReFrames : 3 frames
Codec ID : V_MPEG4/ISO/AVC
Duration : 51 min
Bit rate mode : Constant
Bit rate : 7 051 kb/s
Width : 1 920 pixels
Height : 1 080 pixels
Display aspect ratio : 16:9
Frame rate mode : Constant
Frame rate : 25.000 FPS
Standard : PAL
Color space : YUV
Chroma subsampling : 4:2:0
Bit depth : 8 bits
Scan type : Progressive
Bits/(Pixel*Frame) : 0.136
Stream size : 2.50 GiB (95%)
Default : No
Forced : No
Color range : Limited
Color primaries : BT.709
Transfer characteristics : BT.709
Matrix coefficients : BT.709

Audio
ID : 2
Format : AC-3
Format/Info : Audio Coding 3
Mode extension : CM (complete main)
Format settings, Endianness : Big
Codec ID : A_AC3
Duration : 51 min
Bit rate mode : Constant
Bit rate : 192 kb/s
Channel(s) : 2 channels
Channel positions : Front: L R
Sampling rate : 48.0 kHz
Frame rate : 31.250 FPS (1536 spf)
Compression mode : Lossy
Delay relative to video : -200 ms
Stream size : 71.2 MiB (3%)
Default : Yes
Forced : No
Внимание! Раздача ведётся путём добавления новых серий; при каждом добавлении создаётся новый торрент.
Чтобы начать докачку новой серии, пользователям необходимо сделать следующее:
1. Остановить скачивание;
2. Удалить старый торрент у себя из клиента (старые серии удалять не надо);
3. Скачать новый торрент и запустить его у себя в клиенте вместо старого, при этом указать клиенту путь в старую папку куда и должно происходить скачивание новых серий. Ваш клиент при этом должен произвести хеширование (проверку) старой папки и будет докачивать только те серии, которых у вас ещё нет. Старые серии при этом не удаляются, а продолжают раздаваться! Eсли вы уже удалили старые серии, то предотвратить повторную закачку старых серий можно, отжав галочку в соответствующих местах при запуске нового торрента.
pb.wtf



Скачать Доктор Рихтер через торрент http://i98.fastpic.ru/big/2017/1115/ab/ec02b93a39e3e9a8c5a9b07217a6f0ab.jpg Скачать фильм Доктор Рихтер через торрент бесплантно в хорошем качестве Описание: Городская клиническая больница N 100. Заведующий лечебно-диагностическим отделением Андрей Александрович Рихтер вместе с командой ... 7.3 10 8
Info! Золотая раздача, скачанное не засчитывается.
Торрент: Зарегистрирован [2017-12-01 13:52] · скачан: 60 раз
Статус: √ проверено
Размер: 62.35 GB
Как cкачать? Как скачать Доктор Рихтер через торрент | qTorrent



Последний раз редактировалось: White Smoke (2017-12-01 13:52), всего редактировалось 7 раз(а)

28-11-2019 20:33  

Отключить всю рекламу на сайте

15-11-2017 16:58 Доктор Рихтер Скачать торрент  

Доктор Хаус? =)pb.wtf



18-11-2017 14:30 Доктор Рихтер Скачать торрент  

Ballah писал(а):

Доктор Хаус? =)

ага,как всегда пересняли)).Поглядим может интересно будет,хотя Хауса не смотрелpb.wtf



18-11-2017 22:16 Доктор Рихтер Скачать торрент  

Сюжет точно такой же как и в первом сезоне Хауса, но сделано в разы хуже, если уж на то пошло интересней будет просто пересмотреть первый сезон Хаусаpb.wtf



19-11-2017 09:06 Доктор Рихтер Скачать торрент  

цирк какой-то, зачем кривляться передразнивая оригинал?pb.wtf



23-11-2017 12:38 Доктор Рихтер Скачать торрент  

уже 14 вышла серия! тут ещё всё 10 последняя)pb.wtf



23-11-2017 17:53 Доктор Рихтер Скачать торрент  

благодарочка вам!pb.wtf



25-11-2017 08:31 Доктор Рихтер Скачать торрент  

я в акуе:
первая серия 1 в 1 (я так понимаю дальше так же)- ЗАААЧЕЕЕММММ?
и где взяли набирали команду помощников??
ну если не смотрели Хауса, то хз, можете попробовать.
но вытянуть на Серебрякове весь сериал?! - фиаско братан!pb.wtf



25-11-2017 08:42 Доктор Рихтер Скачать торрент  

непонятно как серебряков на такое согласилсяpb.wtf



28-11-2017 12:03 Доктор Рихтер Скачать торрент  

будет сегодня?pb.wtf



29-11-2017 08:19 Доктор Рихтер Скачать торрент  

20 серий уже есть! но не тут)pb.wtf



30-11-2017 10:36 Доктор Рихтер Скачать торрент  

смысл раздачи если не выкладывать новые серии? может проще закрыть её?pb.wtf



30-11-2017 15:17 Доктор Рихтер Скачать торрент  

Приносим свои извинения в данный момент мы проводим тесты нашего нового источника тв каналов наш старый источник почти умер с уважением Generalfilmpb.wtf



    Дорогой пользователь! Огромная просьба, поблагодарите релизера, оцените раздачу и оставьте свои комментарий, если Вы скачали Доктор Рихтер через торрент бесплатно! Внесите свою лепту в развитие PiratBit!
    Комментировать посты могут только пользователи прошедшие не сложную регистрацию
    Показать сообщения:    

    Доктор Рихтер через торрент
    Скачать бесплатно Доктор Рихтер
    Доктор Рихтер скачать торрент
    Доктор Рихтер смотреть онлайн
    Cкачать фильм Доктор Рихтер бесплатно
    Доктор Рихтер скачать торрент в хорошем качестве
    Доктор Рихтер смотреть онлайн бесплатно в хорошем качестве


    Вы не можете начинать темы
    Вы не можете отвечать на сообщения
    Вы не можете редактировать свои сообщения
    Вы не можете удалять свои сообщения
    Вы не можете голосовать в опросах
    Вы не можете прикреплять файлы к сообщениям
    Вы можете скачивать файлы