Всегда рабочее зеркало без VPN и Proxy просто перед .vidak.icu напиши любое слово или цифру, Пример http://jjyd.vidak.icu

iTunes

2 сезон

1 сезон

1

1 сезон

iTunes

2 сезон

13

1 сезон

Deluxe

pack

Рекомендуем

Пиратка

30

ВАЖНО

RePack

MK11

RePack

jed

RePack

fifa19

RePack

RDR2

RePack

NEED FOR SPEED™ PAYBACK

Кинопоиск HD

6 сезон

 Острые козырьки 6 сезон

Все сериалы

все сериалы на PB.wtf

RePack

FAR CRY 5

Anonymous, нам критически не хватает 5601 руб. на оплату серверов и переферии за Апрель, помоги нам пожалуйста, вся надежда только на тебя. В благодарность мы отключим тебе всю рекламу на сайте!

×
  
Magnet ссылка

Бушвик / Bushwick (Кэри Мернион, Джонатан Милотт) [2017, Боевик, приключения, BDRip-AVC] AVO [BadBajo] - ExKinoRay pb.wtf

Бушвик через торрент pb.wtf

Размер: 2.32 GB | Добавлен: 4 года 5 мес. назад | Торрент скачан:49 раз
Смотреть онлайн Бушвик | Скачать    Ребята, помогите собрать деньги на оплату серверов!!!

26-08-2017 05:50 Бушвик Скачать торрент  

Информация о фильме
Название: Бушвик
Оригинальное название: Bushwick
Год выпуска: 2017
Жанр: Боевик, приключения
Страна: США
Студия: Bullet Pictures, Mensch Productions, Ralfish Films
Продолжительность: 01:33:43
Озвучивание: Авторское (одноголосое) [BadBajo]
Субтитры: Английские
Режиссер: Кэри Мернион, Джонатан Милотт
В ролях: Дэйв Батиста, Кристиан Наварро, Бриттани Сноу, Джереми Харрис, Артуро Кастро, Анджелик Замбрана, Патрик М. Уолш, Джей Хайрон, Куинси Чад Френсис, Джефф Лима

Описание:
История о двадцатилетней девушке Люси и ветеране войны Ступе. Техас планирует выйти из состава США, и в качестве площадки для переговоров используется Нью-Йорк. Однако город превращается в театр боевых действий, и девушке придется объединиться с бывшим военным, чтобы пересечь 5 кварталов района Бушвик, заполненных войсками и мародерами.


rating

Формат: MKV
Качество: BDRip-AVC
Видео: MPEG-4 AVC, 1024x426 (2.40:1), 2712 Kbit/s, 23.976 fps, 0,259 bpp
Звук:
Аудио1: 48 kHz, AC3, 5.1, 384 Kbps | BadBajo | RUS
Аудио2: 48 kHz, AC3, 5.1, 448 Kbps | ENG

Без какой-либо рекламы
General
Unique ID : 218462028104972306626908698066700650065 (0xA45A4193F4F7BD839934C62FBB8EC651)
Complete name : D:\Bushwick.2017.AVO.BDRip.AVC.ExKinoRay.mkv
Format : Matroska
Format version : Version 2
File size : 2.32 GiB
Duration : 1 h 33 min
Overall bit rate : 3 541 kb/s
Movie name : Bushwick 2017 from ExKinoRay
Encoded date : UTC 2017-12-04 04:19:00
Writing application : mkvmerge v5.6.0 ('Kenya Kane') built on May 27 2012 16:44:04
Writing library : libebml v1.2.3 + libmatroska v1.3.0

Video
ID : 1
Format : AVC
Format/Info : Advanced Video Codec
Format profile : High@L4.1
Format settings, CABAC : Yes
Format settings, ReFrames : 13 frames
Codec ID : V_MPEG4/ISO/AVC
Duration : 1 h 33 min
Bit rate : 2 712 kb/s
Width : 1 024 pixels
Height : 426 pixels
Display aspect ratio : 2.40:1
Frame rate mode : Constant
Frame rate : 23.976 (23976/1000) FPS
Color space : YUV
Chroma subsampling : 4:2:0
Bit depth : 8 bits
Scan type : Progressive
Bits/(Pixel*Frame) : 0.259
Stream size : 1.73 GiB (75%)
Title : Enigma
Writing library : x264 core 152 r2851 ba24899
Encoding settings : cabac=1 / ref=13 / deblock=1:-2:-3 / analyse=0x3:0x113 / me=umh / subme=10 / psy=1 / psy_rd=1.00:0.05 / mixed_ref=1 / me_range=32 / chroma_me=1 / trellis=2 / 8x8dct=1 / cqm=0 / deadzone=21,11 / fast_pskip=0 / chroma_qp_offset=-3 / threads=12 / lookahead_threads=3 / sliced_threads=0 / nr=0 / decimate=0 / interlaced=0 / bluray_compat=0 / constrained_intra=0 / bframes=10 / b_pyramid=2 / b_adapt=2 / b_bias=0 / direct=3 / weightb=1 / open_gop=0 / weightp=2 / keyint=240 / keyint_min=23 / scenecut=40 / intra_refresh=0 / rc_lookahead=40 / rc=2pass / mbtree=0 / bitrate=2712 / ratetol=1.0 / qcomp=0.60 / qpmin=0 / qpmax=51 / qpstep=4 / cplxblur=20.0 / qblur=0.5 / vbv_maxrate=50000 / vbv_bufsize=62500 / nal_hrd=none / filler=0 / ip_ratio=1.40 / pb_ratio=1.30 / aq=3:0.90
Language : English
Default : Yes
Forced : No
Color range : Limited
Color primaries : BT.709
Transfer characteristics : BT.709
Matrix coefficients : BT.709

Audio #1
ID : 2
Format : AC-3
Format/Info : Audio Coding 3
Mode extension : CM (complete main)
Format settings, Endianness : Big
Codec ID : A_AC3
Duration : 1 h 33 min
Bit rate mode : Constant
Bit rate : 384 kb/s
Channel(s) : 6 channels
Channel positions : Front: L C R, Side: L R, LFE
Sampling rate : 48.0 kHz
Frame rate : 31.250 FPS (1536 spf)
Compression mode : Lossy
Stream size : 257 MiB (11%)
Title : AVO (BadBajo)
Language : Russian
Default : Yes
Forced : No

Audio #2
ID : 3
Format : AC-3
Format/Info : Audio Coding 3
Mode extension : CM (complete main)
Format settings, Endianness : Big
Codec ID : A_AC3
Duration : 1 h 33 min
Bit rate mode : Constant
Bit rate : 448 kb/s
Channel(s) : 6 channels
Channel positions : Front: L C R, Side: L R, LFE
Sampling rate : 48.0 kHz
Frame rate : 31.250 FPS (1536 spf)
Compression mode : Lossy
Stream size : 300 MiB (13%)
Language : English
Default : No
Forced : No

Text
ID : 4
Format : UTF-8
Codec ID : S_TEXT/UTF8
Codec ID/Info : UTF-8 Plain Text
Language : English
Default : No
Forced : No

Menu
00:00:00.000 : en:00:00:00.000
00:06:59.919 : en:00:06:59.919
00:17:21.165 : en:00:17:21.165
00:22:17.753 : en:00:22:17.753
00:29:15.671 : en:00:29:15.671
00:34:38.451 : en:00:34:38.451
00:42:58.868 : en:00:42:58.868
00:49:28.591 : en:00:49:28.591
01:02:20.153 : en:01:02:20.153
01:09:09.729 : en:01:09:09.729
01:23:26.043 : en:01:23:26.043
01:28:54.538 : en:01:28:54.538
Релиз от:

Автор релиза: pb.wtf



Скачать Бушвик через торрент http://lostpix.com/img/2017-08/26/cwxlfrd9avyanolcae81gfjm7.jpg Скачать, смотреть онлайн Бушвик бесплантно в хорошем качестве Описание: История о двадцатилетней девушке Люси и ветеране войны Ступе. Техас планирует выйти из состава США, и в качестве площадки для ... 8.7 10 7
Info! Золотая раздача, скачанное не засчитывается.
Торрент: Зарегистрирован [2017-12-04 21:58] · скачан: 49 раз
Статус: √ проверено
Размер: 2.32 GB
Как cкачать? Как скачать Бушвик через торрент | UTorrent

% Раздел Тема Автор DL S | L
Фильмы с авторской озвучкой [ 1.45 GB ] Бушвик / Bushwick [2017 BDRip] AVO [BadBajo] - ExKinoRay Enigma2010 Скачать
1 | 0
Фильмы с авторской озвучкой [ 1.37 GB ] Бушвик / Bushwick [2017 WEB-DLRip] AVO [BadBajo] - ExKinoRay Enigma2010 Скачать
1 | 0


Последний раз редактировалось: Enigma2010 (2017-12-04 22:00), всего редактировалось 3 раз(а)

28-11-2019 20:33  

Отключить всю рекламу на сайте

26-08-2017 16:30 Бушвик Скачать торрент  

ох и шлак,не выдержал на половине,удалилpb.wtf



04-12-2017 21:59 Бушвик Скачать торрент  

Замена WEB-DLRip (AVC) на BDRip (AVC).pb.wtf



    Дорогой пользователь! Огромная просьба, поблагодарите релизера, оцените раздачу и оставьте свои комментарий, если Вы скачали Бушвик через торрент бесплатно!
    Комментировать посты могут только пользователи прошедшие не сложную регистрацию
    Показать сообщения:    

    Бушвик через торрент
    Скачать бесплатно Бушвик
    Бушвик скачать торрент
    Бушвик смотреть онлайн
    Cкачать фильм Бушвик бесплатно
    Бушвик скачать торрент в хорошем качестве
    Бушвик смотреть онлайн бесплатно в хорошем качестве


    Вы не можете начинать темы
    Вы не можете отвечать на сообщения
    Вы не можете редактировать свои сообщения
    Вы не можете удалять свои сообщения
    Вы не можете голосовать в опросах
    Вы не можете прикреплять файлы к сообщениям
    Вы можете скачивать файлы