Всегда рабочее зеркало без VPN и Proxy просто перед .vidak.icu напиши любое слово или цифру, Пример http://lx17.vidak.icu

MVO

Лицензия

1 сезон

1

1 сезон

iTunes

1 сезон

13

1 сезон

Deluxe

pack

Рекомендуем

Repack

30

ВАЖНО

RePack

MK11

RePack

jed

RePack

fifa19

RePack

RDR2

RePack

NEED FOR SPEED™ PAYBACK

Кинопоиск HD

6 сезон

 Острые козырьки 6 сезон

Все сериалы

все сериалы на PB.wtf

RePack

FAR CRY 5
  
Magnet ссылка

Стена / The Wall (Даг Лайман) [2017, Триллер, драма, военный, BDRip 720p] MVO [Студия "Paradox" & Omskbird records] pb.wtf

Стена через торрент pb.wtf

Размер: 3.22 GB | Добавлен: 4 года 10 мес. назад | Торрент скачан:282 раза
Смотреть онлайн Стена | Скачать    Ребята, помогите собрать деньги на оплату серверов!!!

28-08-2017 17:19 Стена Скачать торрент  

Стена / The Wall
Год выпуска: 2017
Страна: США
Жанр: Триллер, драма, военный
Продолжительность: 01:30:27
Перевод: Любительский (многоголосый) [Студия "Paradox" & Omskbird records]
Субтитры: отсутствуют

Режиссер: Даг Лайман

rating

В ролях:

Аарон Тейлор-Джонсон, Джон Сина, Спенсер Томас, Лэйт Накли

Описание:

Американский стрелок оказывается в ловушке за небольшой стеной и под прицелом своего противника. Герой ловит вражескую радиочастоту и общается с иракским снайпером. Живым с поля боя уйдет лишь один из них.

Качество: BDRip 720p
Формат: MKV
Видео кодек: H.264
Аудио кодек: AC3

Видео: 1280x528, 4899 kb/s, 23,976 fps
Аудио: AC3, 2 ch, 192 kb/s


скриншот   скриншот   скриншот   скриншот  

Format : Matroska
Format version : Version 4 / Version 2
File size : 3.22 GiB
Duration : 1 h 30 min
Overall bit rate : 5 093 kb/s
Encoded date : UTC 2017-08-28 12:53:36
Writing application : mkvmerge v9.3.1 ('Mask Machine') 64bit
Writing library : libebml v1.3.4 + libmatroska v1.4.5

Video
ID : 1
Format : AVC
Format/Info : Advanced Video Codec
Format profile : [email protected]
Format settings, CABAC : Yes
Format settings, ReFrames : 4 frames
Codec ID : V_MPEG4/ISO/AVC
Duration : 1 h 30 min
Bit rate : 4 899 kb/s
Width : 1 280 pixels
Height : 528 pixels
Display aspect ratio : 2.40:1
Frame rate mode : Constant
Frame rate : 23.976 (24000/1001) FPS
Color space : YUV
Chroma subsampling : 4:2:0
Bit depth : 8 bits
Scan type : Progressive
Bits/(Pixel*Frame) : 0.302
Stream size : 3.10 GiB (96%)
Writing library : x264 core 148 r2638 7599210
Encoding settings : cabac=1 / ref=3 / deblock=1:0:0 / analyse=0x3:0x113 / me=hex / subme=7 / psy=1 / psy_rd=1.00:0.00 / mixed_ref=1 / me_range=16 / chroma_me=1 / trellis=1 / 8x8dct=1 / cqm=0 / deadzone=21,11 / fast_pskip=1 / chroma_qp_offset=-2 / threads=12 / lookahead_threads=2 / sliced_threads=0 / nr=0 / decimate=1 / interlaced=0 / bluray_compat=0 / constrained_intra=0 / bframes=3 / b_pyramid=2 / b_adapt=1 / b_bias=0 / direct=1 / weightb=1 / open_gop=0 / weightp=2 / keyint=240 / keyint_min=23 / scenecut=40 / intra_refresh=0 / rc_lookahead=40 / rc=2pass / mbtree=1 / bitrate=4899 / ratetol=1.0 / qcomp=0.60 / qpmin=0 / qpmax=69 / qpstep=4 / cplxblur=20.0 / qblur=0.5 / ip_ratio=1.40 / aq=1:1.00
Default : Yes
Forced : No

Audio
ID : 2
Format : AC-3
Format/Info : Audio Coding 3
Mode extension : CM (complete main)
Format settings, Endianness : Big
Codec ID : A_AC3
Duration : 1 h 30 min
Bit rate mode : Constant
Bit rate : 192 kb/s
Channel(s) : 2 channels
Channel positions : Front: L R
Sampling rate : 48.0 kHz
Frame rate : 31.250 FPS (1536 spf)
Compression mode : Lossy
Stream size : 124 MiB (4%)
Default : Yes
Forced : No

pb.wtf



Скачать Стена через торрент http://i92.fastpic.ru/big/2017/0802/ee/381d40d0cd4a39801016f765527d65ee.jpg Скачать, смотреть онлайн Стена бесплантно в хорошем качестве Описание: Американский стрелок оказывается в ловушке за небольшой стеной и под прицелом своего противника. Герой ловит вражескую ... 10 10 9
Торрент: Зарегистрирован [2017-08-28 17:19] · скачан: 282 раз
Статус: T временная
Размер: 3.22 GB
Как cкачать? Как скачать Стена через торрент | UTorrent

% Раздел Тема Автор DL S | L
T Фильмы 2017 [DVDrip, WEB-DLRip, HDrip] (DUB, MVO) [ 1.37 GB ] Стена / The Wall [2017 военный HDRip] MVO [Студия "Paradox" & Omskbird records] bober100 Скачать
1 | 0
Фильмы 2019-2020 [DVDrip, WEB-DLRip, HDrip] (DUB, MVO) [ 709 MB ] Мексиканская стена / The Wall of Mexico [2019 WEB-DLRip многоголосый закадровый ""] coc900 Скачать
1 | 0
T Фильмы (WEB-DL 720p, 1080p) [ 3.38 GB ] Мексиканская стена / The Wall of Mexico [2019 WEB-DL 1080p] MVO bober100 Скачать
1 | 0
Фильмы до 2000 г. [ 2.05 GB ] Спиной к Стене / Аттика / Against The Wall [1994 DVDRip-AVC] [DVO] killermax2013 Скачать
1 | 0
Фильмы (WEB-DL 720p, 1080p) [ 8.83 GB ] Спиной к Стене / Аттика / Against The Wall [1994 WEBRip 1080p] [DVO] killermax2013 Скачать
1 | 0
Фильмы (DVD фильмы) [ 4.26 GB ] Спиной к Стене / Аттика / Against The Wall [1994 DVD5] [DVO] killermax2013 Скачать
1 | 0
T Фильмы (мультфильмы) cо спонсором показа (Новинки AVI/MKV) [ 3.68 GB ] Кот в стене / Cat in the Wall [2019 WEB-DL 720p] MVO ["Синема УС"] bober100 Скачать
1 | 0

28-11-2019 20:33  

Отключить всю рекламу на сайте

14-12-2017 17:39 Стена Скачать торрент  

    Дорогой пользователь! Огромная просьба, поблагодарите релизера, оцените раздачу и оставьте свои комментарий, если Вы скачали Стена через торрент бесплатно!
    Комментировать посты могут только пользователи прошедшие не сложную регистрацию
    Показать сообщения:    

    Стена через торрент
    Скачать бесплатно Стена
    Стена скачать торрент
    Стена смотреть онлайн
    Cкачать фильм Стена бесплатно
    Стена скачать торрент в хорошем качестве
    Стена смотреть онлайн бесплатно в хорошем качестве


    Вы не можете начинать темы
    Вы не можете отвечать на сообщения
    Вы не можете редактировать свои сообщения
    Вы не можете удалять свои сообщения
    Вы не можете голосовать в опросах
    Вы не можете прикреплять файлы к сообщениям
    Вы можете скачивать файлы