Всегда рабочее зеркало без VPN и Proxy просто перед .vidak.icu напиши любое слово или цифру, Пример http://ab0a.vidak.icu

MVO

Лицензия

1 сезон

1

1 сезон

iTunes

1 сезон

13

1 сезон

Deluxe

pack

Рекомендуем

Пиратка

30

ВАЖНО

RePack

MK11

RePack

jed

RePack

fifa19

RePack

RDR2

RePack

NEED FOR SPEED™ PAYBACK

Кинопоиск HD

6 сезон

 Острые козырьки 6 сезон

Все сериалы

все сериалы на PB.wtf

RePack

FAR CRY 5

Anonymous, нам критически не хватает 2100 руб. на оплату серверов и переферии за МАЙ, помоги нам пожалуйста, вся надежда только на тебя. В благодарность мы отключим тебе всю рекламу на сайте!

×
  
Magnet ссылка

Три условия / 3 Ting (Дженс Даль) [2017, триллер, драма, BDRip 720p] MVO ["Синема УС"] pb.wtf

Три условия через торрент pb.wtf

Размер: 3.72 GB | Добавлен: 4 года 8 мес. назад | Торрент скачан:260 раз
Смотреть онлайн Три условия | Скачать    Ребята, помогите собрать деньги на оплату серверов!!!

28-09-2017 11:28 Три условия Скачать торрент  

Три условия / 3 Ting
Год выпуска: 2017
Страна: Дания
Жанр: триллер, драма
Продолжительность: 01:30:32
Перевод: Любительский (многоголосый) - ["Синема УС"]
Субтитры: отсутствуют

Режиссер: Дженс Даль

rating

В ролях:

Николай Костер-Вальдау, Биргитта Йорт Сёренсен, Лерке Винтер Андерсен, Якоб Ульрик Ломанн, Мортен Хольст, Аске Банг, Миа Нильсен-Ексен, Сонни Лэхи

Описание:

Действие разворачивается в отеле, где полиция проводит переговоры о защите свидетеля и даче показаний главным подозреваемым в ограблении банка и спецом по взрывчатке, Микаэлом. Он готов на сделку, если представители правоохранительных органов выполнят три условия: привести к нему его бывшую девушку, добыть содержимое некоей коробки, которую он припрятал, и доставить курицу в сливочно-томатном соусе из его любимого ресторана...

Качество: BDRip 720p
Формат: MKV
Видео кодек: H.264
Аудио кодек: AC3

Видео: 5469 Кбит/с, 1280x536
Аудио: Русский, (AC3, 2 ch, 448 Кбит/с)

скриншот   скриншот   скриншот  

Общее
Уникальный идентификатор : 212838876895530018924708448007798335390 (0xA01F46D18126F86790D90484E4D7279E)
Полное имя : D:\3.Ting.2017.P.BDRip.72Op_KOSHARA.mkv
Формат : Matroska
Версия формата : Version 2
Размер файла : 3,72 Гбайт
Продолжительность : 1 ч. 30 м.
Режим общего битрейта : Переменный
Общий поток : 5919 Кбит/сек
Дата кодирования : UTC 2017-09-27 18:32:11
Программа кодирования : mkvmerge v8.3.0 ('Over the Horizon') 64bit
Библиотека кодирования : libebml v1.3.1 + libmatroska v1.4.2

Видео
Идентификатор : 1
Формат : AVC
Формат/Информация : Advanced Video Codec
Профиль формата : High@L4.1
Параметр CABAC формата : Да
Параметр ReFrames формата : 12 кадров
Идентификатор кодека : V_MPEG4/ISO/AVC
Продолжительность : 1 ч. 30 м.
Вид битрейта : Переменный
Битрейт : 5469 Кбит/сек
Максимальный битрейт : 6000 Кбит/сек
Ширина : 1280 пикселей
Высота : 536 пикселей
Соотношение сторон : 2,40:1
Режим частоты кадров : Постоянный
Частота кадров : 23,976 (24000/1001) кадра/сек
Стандарт вещания : Component
Цветовое пространство : YUV
Субдискретизация насыщенности : 4:2:0
Битовая глубина : 8 бит
Тип развёртки : Прогрессивная
Бит/(Пиксели*Кадры) : 0.332
Размер потока : 3,44 Гбайт (92%)
Default : Да
Forced : Нет
Цветовой диапазон : Limited
Основные цвета : BT.709
Характеристики трансфера : BT.709
Коэффициенты матрицы : BT.709

Аудио
Идентификатор : 2
Формат : AC-3
Формат/Информация : Audio Coding 3
Расширение режима : CM (complete main)
Параметр Endianness формата : Big
Идентификатор кодека : A_AC3
Продолжительность : 1 ч. 30 м.
Вид битрейта : Постоянный
Битрейт : 448 Кбит/сек
Каналы : 2 канала
Расположение каналов : Front: L R
Частота : 48,0 КГц
Частота кадров : 31,250 кадров/сек (1536 spf)
Метод сжатия : С потерями
Размер потока : 288 Мбайт (8%)
Default : Да
Forced : Нет
pb.wtf



Скачать Три условия через торрент http://img12.lostpic.net/2017/09/29/f7f2862b4d89680a0e8f42ba3d330395.png Скачать, смотреть онлайн Три условия бесплантно в хорошем качестве Описание: Действие разворачивается в отеле, где полиция проводит переговоры о защите свидетеля и даче показаний главным подозреваемым в ... 8 10 5
Торрент: Зарегистрирован [2017-09-28 11:28] · скачан: 260 раз
Статус: T временная
Размер: 3.72 GB
Как cкачать? Как скачать Три условия через торрент | UTorrent

% Раздел Тема Автор DL S | L
T Релизы по Парсеру [Игры, Сериалы и Фильмы и другое...] [ 1.37 GB ] Три условия / 3 Ting [2017 HDRip] MVO ["Синема УС"] bober100 Скачать
1 | 0

28-11-2019 20:33  

Отключить всю рекламу на сайте

01-10-2017 01:52 Три условия Скачать торрент  

Самые большие проблемы, вероятно, возникнут с курицей. Кто-нибудь посмотрел? Как оно?pb.wtf



14-12-2017 17:42 Три условия Скачать торрент  

    Дорогой пользователь! Огромная просьба, поблагодарите релизера, оцените раздачу и оставьте свои комментарий, если Вы скачали Три условия через торрент бесплатно!
    Комментировать посты могут только пользователи прошедшие не сложную регистрацию
    Показать сообщения:    

    Три условия через торрент
    Скачать бесплатно Три условия
    Три условия скачать торрент
    Три условия смотреть онлайн
    Cкачать фильм Три условия бесплатно
    Три условия скачать торрент в хорошем качестве
    Три условия смотреть онлайн бесплатно в хорошем качестве


    Вы не можете начинать темы
    Вы не можете отвечать на сообщения
    Вы не можете редактировать свои сообщения
    Вы не можете удалять свои сообщения
    Вы не можете голосовать в опросах
    Вы не можете прикреплять файлы к сообщениям
    Вы можете скачивать файлы