Всегда рабочее зеркало без VPN и Proxy просто перед .vidak.icu напиши любое слово или цифру, Пример http://li3h.vidak.icu

MVO

2 сезон

1 сезон

1

1 сезон

iTunes

2 сезон

13

1 сезон

Deluxe

pack

Рекомендуем

Пиратка

30

ВАЖНО

RePack

MK11

RePack

jed

RePack

fifa19

RePack

RDR2

RePack

NEED FOR SPEED™ PAYBACK

Кинопоиск HD

6 сезон

 Острые козырьки 6 сезон

Все сериалы

все сериалы на PB.wtf

RePack

FAR CRY 5

Anonymous, нам критически не хватает 5601 руб. на оплату серверов и переферии за Апрель, помоги нам пожалуйста, вся надежда только на тебя. В благодарность мы отключим тебе всю рекламу на сайте!

×
  
Magnet ссылка

Зловещий Эд / Evil Ed (Андерс Якобссон) [1995 г, ужасы, комедия, BDRip] 3xAVO pb.wtf

Зловещий Эд через торрент pb.wtf

Размер: 1.45 GB | Добавлен: 4 года 4 мес. назад | Торрент скачан:9 раз
Смотреть онлайн Зловещий Эд | Скачать    Ребята, помогите собрать деньги на оплату серверов!!!

28-12-2017 06:10 Зловещий Эд Скачать торрент  

Зловещий Эд / Evil Ed
Год выпуска: 1995
Страна: Швеция
Жанр: ужасы, комедия
Продолжительность: 01:38:49
Перевод: Авторский (Горчаков, Визгунов, Карцев)

Режиссер: Андерс Якобссон

rating

В ролях: Йохан Рудебек, Пер Лефберг, Олоф Родин, Герт Филкинг, Камела Льерт, Сесилия Юнг, Ганс Вильхельмссон, Андерс Эк

Описание: Продюсер фильмов ужасов приглашает в свою студию скромного специалиста по монтажу Эда для того, чтобы тот отредактировал для показа несколько его картин из серии «Потерянные конечности». Предыдущий работник, занимавшийся этим делом, покончил жизнь самоубийством. Эду необходимо вырезать наиболее кровавые и жестокие эпизоды. Но тот сходит с ума от обилия крови, извращений и насилия, и сам начинает «мочить» всех подряд самыми изысканными способами…

Качество: BDRip (Sloweschij.Ed.1995.BD-Remux.1080p)
Формат: AVI
Видео: XviD, 1506 Кбит/с, 704x400, 23.976 кадр/с
Аудио #1: AC3, 2 ch, 192 Кбит/с | Авторский (Горчаков)
Аудио #2: AC3, 2 ch, 192 Кбит/с | Авторский (Визгунов)
Аудио #3: AC3, 2 ch, 192 Кбит/с | Авторский (Карцев)
Релиз от: Koenig
скриншот   скриншот   скриншот   скриншот   скриншот   скриншот  

Общее
Полное имя : Evil.Ed.1995.BDRip.avi
Формат : AVI
Формат/Информация : Audio Video Interleave
Размер файла : 1,45 Гбайт
Продолжительность : 1 ч. 38 м.
Общий поток : 2101 Кбит/сек
Программа кодирования : VirtualDubMod 1.5.10.2 (build 2540/release)
Библиотека кодирования : VirtualDubMod build 2540/release

Видео
Идентификатор : 0
Формат : MPEG-4 Visual
Профиль формата : Advanced Simple@L5
Параметр BVOP формата : 1
Параметр QPel формата : Нет
Параметр GMC формата : Без точки перехода
Параметр матрицы формата : Выборочная
Идентификатор кодека : XVID
Идентификатор кодека/Подсказка : XviD
Продолжительность : 1 ч. 38 м.
Битрейт : 1506 Кбит/сек
Ширина : 704 пикселя
Высота : 400 пикселей
Соотношение сторон : 16:9
Частота кадров : 23,976 (24000/1001) кадра/сек
Цветовое пространство : YUV
Субдискретизация насыщенности : 4:2:0
Битовая глубина : 8 бит
Тип развёртки : Прогрессивная
Метод сжатия : С потерями
Бит/(Пиксели*Кадры) : 0.223
Размер потока : 1,04 Гбайт (72%)
Библиотека кодирования : XviD 65

Аудио #1
Идентификатор : 1
Формат : AC-3
Формат/Информация : Audio Coding 3
Параметр Endianness формата : Big
Идентификатор кодека : 2000
Продолжительность : 1 ч. 38 м.
Вид битрейта : Постоянный
Битрейт : 192 Кбит/сек
Каналы : 2 канала
Расположение каналов : Front: L R
Частота : 48,0 КГц
Частота кадров : 31,250 кадров/сек (1536 spf)
Битовая глубина : 16 бит
Метод сжатия : С потерями
Размер потока : 136 Мбайт (9%)
Выравнивание : Разделение по промежуткам
Продолжительность промежутка : 42 мс. (1,00 видеокадр)
Время предзагрузки промежутка : 500 мс.
ServiceKind/String : Complete Main

Аудио #2
Идентификатор : 2
Формат : AC-3
Формат/Информация : Audio Coding 3
Параметр Endianness формата : Big
Идентификатор кодека : 2000
Продолжительность : 1 ч. 38 м.
Вид битрейта : Постоянный
Битрейт : 192 Кбит/сек
Каналы : 2 канала
Расположение каналов : Front: L R
Частота : 48,0 КГц
Частота кадров : 31,250 кадров/сек (1536 spf)
Битовая глубина : 16 бит
Метод сжатия : С потерями
Размер потока : 136 Мбайт (9%)
Выравнивание : Разделение по промежуткам
Продолжительность промежутка : 42 мс. (1,00 видеокадр)
Время предзагрузки промежутка : 500 мс.
ServiceKind/String : Complete Main

Аудио #3
Идентификатор : 3
Формат : AC-3
Формат/Информация : Audio Coding 3
Параметр Endianness формата : Big
Идентификатор кодека : 2000
Продолжительность : 1 ч. 38 м.
Вид битрейта : Постоянный
Битрейт : 192 Кбит/сек
Каналы : 2 канала
Расположение каналов : Front: L R
Частота : 48,0 КГц
Частота кадров : 31,250 кадров/сек (1536 spf)
Битовая глубина : 16 бит
Метод сжатия : С потерями
Размер потока : 136 Мбайт (9%)
Выравнивание : Разделение по промежуткам
Продолжительность промежутка : 42 мс. (1,00 видеокадр)
Время предзагрузки промежутка : 500 мс.
ServiceKind/String : Complete Main

pb.wtf



Скачать Зловещий Эд через торрент https://pic1.kartinco.top/images/11/gl5d1.jpg Скачать, смотреть онлайн Зловещий Эд бесплантно в хорошем качестве Описание: Продюсер фильмов ужасов приглашает в свою студию скромного специалиста по монтажу Эда для того, чтобы тот отредактировал для ... 5 10 1
Торрент: Зарегистрирован [2017-12-28 06:10] · скачан: 9 раз
Статус: √ проверено
Размер: 1.45 GB
Как cкачать? Как скачать Зловещий Эд через торрент | UTorrent

% Раздел Тема Автор DL S | L
Фильмы с авторской озвучкой [ 9.94 GB ] Зловещий Эд / Evil Ed [1995 BDRip 1080p] 5xAVO Леонид Ильич Скачать
1 | 0

28-11-2019 20:33  

Отключить всю рекламу на сайте

    Дорогой пользователь! Огромная просьба, поблагодарите релизера, оцените раздачу и оставьте свои комментарий, если Вы скачали Зловещий Эд через торрент бесплатно!
    Комментировать посты могут только пользователи прошедшие не сложную регистрацию
    Показать сообщения:    

    Зловещий Эд через торрент
    Скачать бесплатно Зловещий Эд
    Зловещий Эд скачать торрент
    Зловещий Эд смотреть онлайн
    Cкачать фильм Зловещий Эд бесплатно
    Зловещий Эд скачать торрент в хорошем качестве
    Зловещий Эд смотреть онлайн бесплатно в хорошем качестве


    Вы не можете начинать темы
    Вы не можете отвечать на сообщения
    Вы не можете редактировать свои сообщения
    Вы не можете удалять свои сообщения
    Вы не можете голосовать в опросах
    Вы не можете прикреплять файлы к сообщениям
    Вы можете скачивать файлы