Ссылка на приватное зеркало нашего сайта всего за 1$. Внимание количество ограничено!!!

2 сезон

iTunes

1 сезон

1

2 сезон

2 сезон

iTunes

1 сезон

RePack

30

Ultimate

ВАЖНО

ИГРА 18+

pack

RePack

MK11
pack

Забери бонус

RePack

jed

!!Акция!!

Alien_Rage

RePack

fifa19

RePack

Assassins Creed: Odyssey

RePack

NEED FOR SPEED™ PAYBACK

4 сезон

9 сезон

Бесстыжие 9 сезон

Все сериалы

все сериалы на PB.wtf

RePack

FAR CRY 5
  

Похищенная / A Lonely Place to Die (Джулиан Джилби ) [2011, триллер, криминал, приключения, BDRip 720p от _denis_100 | NNNB] MVO + AVO + Original + Sub (Rus,Eng) pb.wtf

Похищенная через торрент pb.wtf

Размер: 4.37 GB | Добавлен: 2 года 10 мес. назад | Торрент скачан:213 раз
Скачать  

29-12-2017 09:50 Похищенная Скачать торрент  

Похищенная / A Lonely Place to Die
«Здесь отличное место для смерти»


Год выпуска: 2011
Страна: Великобритания
Жанр: триллер, криминал, приключения
Продолжительность: 01:39:04
Перевод: Профессиональный многоголосый, Авторский одноголосый
Субтитры: русские (R5), английские (SDH)
Режиссер: Джулиан Джилби
В ролях: Мелисса Джордж , Карел Роден , Алек Ньюман , Эдвард Спелирс , Кейт Магоуэн , Гарри Суини , Холли Бойд , Дуглас Расселл , Alan Steele , Шон Харрис , Стивен МакКоул , Имонн Уолкер
Описание:
Пятеро альпинистов совершают восхождение на одну из шотландских возвышенностей. Поднявшись, они обнаруживают юную девочку, которая непонятно как оказалась одна в совершенно дикой местности...

R - Лицам до 17 лет обязательно присутствие взрослого
Качество: BDRip 720p с A Lonely Place to Die 2011 1080p FRE Blu-ray
Контейнер (Расширение): MKV
Видео: 1280x544, 4773 Кбит/сек, 24 кадр/сек, 0,286 Бит/[Пиксели*Кадры]
Аудио №1: русский / AC3 / 5.1 / 48 kHz / 448 kbps / |Профессиональный многоголосый, R5|
Аудио №2: русский / AC3 / 5.1 / 48 kHz / 448 kbps / |Авторский одноголосый, Ю.Сербин|
Аудио №3: английский / AC3 / 5.1 / 48 kHz / 640 kbps /
Навигация по главам(Чаптеры): естьАвтор рипа: Группа:
Format : Matroska
Format version : Version 2
File size : 4.37 GiB
Duration : 1 h 39 min
Overall bit rate : 6 309 kb/s
Movie name : A Lonely Place to Die.(2011).BDRip.720p.[denis100]
Encoded date : UTC 2017-12-27 18:59:22
Writing application : mkvmerge v5.8.0 ('No Sleep / Pillow') built on Sep 2 2012 15:37:04
Writing library : libebml v1.2.3 + libmatroska v1.3.0

Video
ID : 1
Format : AVC
Format/Info : Advanced Video Codec
Format profile : High@L4.1
Format settings, CABAC : Yes
Format settings, ReFrames : 11 frames
Codec ID : V_MPEG4/ISO/AVC
Duration : 1 h 39 min
Bit rate : 4 773 kb/s
Width : 1 280 pixels
Height : 544 pixels
Display aspect ratio : 2.35:1
Frame rate mode : Constant
Frame rate : 24.000 FPS
Color space : YUV
Chroma subsampling : 4:2:0
Bit depth : 8 bits
Scan type : Progressive
Bits/(Pixel*Frame) : 0.286
Stream size : 3.22 GiB (74%)
Title : A Lonely Place to Die.(2011).BDRip.720p.[denis100]
Writing library : x264 core 152 r2851 ba24899
Encoding settings : cabac=1 / ref=11 / deblock=1:-3:-3 / analyse=0x3:0x113 / me=umh / subme=11 / psy=1 / psy_rd=1.00:0.05 / mixed_ref=1 / me_range=32 / chroma_me=1 / trellis=2 / 8x8dct=1 / cqm=0 / deadzone=21,11 / fast_pskip=0 / chroma_qp_offset=-3 / threads=6 / lookahead_threads=1 / sliced_threads=0 / nr=0 / decimate=1 / interlaced=0 / bluray_compat=0 / constrained_intra=0 / bframes=8 / b_pyramid=2 / b_adapt=2 / b_bias=0 / direct=3 / weightb=1 / open_gop=0 / weightp=2 / keyint=240 / keyint_min=24 / scenecut=40 / intra_refresh=0 / rc=2pass / mbtree=0 / bitrate=4773 / ratetol=1.0 / qcomp=0.60 / qpmin=0 / qpmax=69 / qpstep=4 / cplxblur=20.0 / qblur=0.5 / ip_ratio=1.40 / pb_ratio=1.30 / aq=1:0.85
Language : English
Default : No
Forced : No

Audio #1
ID : 2
Format : AC-3
Format/Info : Audio Coding 3
Mode extension : CM (complete main)
Format settings, Endianness : Big
Codec ID : A_AC3
Duration : 1 h 39 min
Bit rate mode : Constant
Bit rate : 448 kb/s
Channel(s) : 6 channels
Channel positions : Front: L C R, Side: L R, LFE
Sampling rate : 48.0 kHz
Frame rate : 31.250 FPS (1536 spf)
Compression mode : Lossy
Stream size : 317 MiB (7%)
Title : MVO, R5
Language : Russian
Default : No
Forced : No

Audio #2
ID : 3
Format : AC-3
Format/Info : Audio Coding 3
Mode extension : CM (complete main)
Format settings, Endianness : Big
Codec ID : A_AC3
Duration : 1 h 39 min
Bit rate mode : Constant
Bit rate : 448 kb/s
Channel(s) : 6 channels
Channel positions : Front: L C R, Side: L R, LFE
Sampling rate : 48.0 kHz
Frame rate : 31.250 FPS (1536 spf)
Compression mode : Lossy
Stream size : 317 MiB (7%)
Title : AVO, Ю. Сербин
Language : Russian
Default : No
Forced : No

Audio #3
ID : 4
Format : AC-3
Format/Info : Audio Coding 3
Mode extension : CM (complete main)
Format settings, Endianness : Big
Codec ID : A_AC3
Duration : 1 h 39 min
Bit rate mode : Constant
Bit rate : 640 kb/s
Channel(s) : 6 channels
Channel positions : Front: L C R, Side: L R, LFE
Sampling rate : 48.0 kHz
Frame rate : 31.250 FPS (1536 spf)
Compression mode : Lossy
Stream size : 454 MiB (10%)
Language : English
Default : No
Forced : No

Text #1
ID : 5
Format : UTF-8
Codec ID : S_TEXT/UTF8
Codec ID/Info : UTF-8 Plain Text
Title : R5
Language : Russian
Default : No
Forced : No

Text #2
ID : 6
Format : UTF-8
Codec ID : S_TEXT/UTF8
Codec ID/Info : UTF-8 Plain Text
Title : SDH
Language : English
Default : No
Forced : No

Menu
00:00:00.000 : :Chapter 01
00:07:56.416 : :Chapter 02
00:12:04.375 : :Chapter 03
00:15:53.958 : :Chapter 04
00:21:07.208 : :Chapter 05
00:26:36.916 : :Chapter 06
00:33:18.458 : :Chapter 07
00:36:07.625 : :Chapter 08
00:42:44.916 : :Chapter 09
00:47:22.583 : :Chapter 10
00:52:15.000 : :Chapter 11
00:57:40.916 : :Chapter 12
01:02:31.583 : :Chapter 13
01:07:14.541 : :Chapter 14
01:13:14.541 : :Chapter 15
01:17:56.833 : :Chapter 16
01:22:57.208 : :Chapter 17
01:27:48.833 : :Chapter 18
01:29:57.625 : :Chapter 19
01:34:55.000 : :Chapter 20
x264 [info]: frame I:1353 Avg QP:14.16 size:139403
x264 [info]: frame P:40286 Avg QP:17.01 size: 43104
x264 [info]: frame B:100992 Avg QP:18.25 size: 16044
pb.wtf



Скачать Похищенная через торрент http://i4.imageban.ru/out/2017/12/29/3169558a1a25db2d85f9dc71f79287fe.png Скачать фильм Похищенная через торрент бесплантно в хорошем качестве Описание:Пятеро альпинистов совершают восхождение на одну из шотландских возвышенностей. Поднявшись, они обнаруживают юную девочку, которая ... 10 10 5
Info! Золотая раздача, скачанное не засчитывается.
Торрент: Зарегистрирован [2017-12-29 09:50] · скачан: 213 раз
Статус: √ проверено
Размер: 4.37 GB
Как cкачать? Как скачать Похищенная через торрент | qTorrent

% Раздел Тема Автор DL S | L
Фильмы 2011 [ 2.17 GB ] Похищенная / A Lonely Place to Die [2011 BDRip-AVC] MVO + Original + Sub potroks Скачать
1 | 0
Фильмы (Blu-ray, BD-Remux, HDDVD) [ 16.9 GB ] Похищенная / A Lonely Place to Die [2011 Blu-ray disc ] sergey82 Скачать
1 | 0
Фильмы 2011 [ 1.37 GB ] Похищенная / A Lonely Place to Die [2011 HDRip] VaGaBoNd Скачать
1 | 0
Фильмы [HD 720p, 1080p] (Хороший звук DUB, MVO) [ 6.78 GB ] Похищенная / A Lonely Place to Die [2011 BDRip] [1080p] [MVO] [НТВ Меттерних К.В Скачать
1 | 0

28-11-2019 20:33  

Отключить всю рекламу на сайте

    Дорогой пользователь! Огромная просьба, поблагодарите релизера, оцените раздачу и оставьте свои комментарий, если Вы скачали Похищенная через торрент бесплатно! Внесите свою лепту в развитие PiratBit!
    Комментировать посты могут только пользователи прошедшие не сложную регистрацию
    Показать сообщения:    

    Похищенная через торрент
    Скачать бесплатно Похищенная
    Похищенная скачать торрент
    Похищенная смотреть онлайн
    Cкачать фильм Похищенная бесплатно
    Похищенная скачать торрент в хорошем качестве
    Похищенная смотреть онлайн бесплатно в хорошем качестве


    Вы не можете начинать темы
    Вы не можете отвечать на сообщения
    Вы не можете редактировать свои сообщения
    Вы не можете удалять свои сообщения
    Вы не можете голосовать в опросах
    Вы не можете прикреплять файлы к сообщениям
    Вы можете скачивать файлы