Всегда рабочее зеркало без VPN и Proxy просто перед .vidak.icu напиши любое слово или цифру, Пример http://ep3w.vidak.icu

MVO

MVO

1 сезон

1

1 сезон

iTunes

1 сезон

13

1 сезон

Deluxe

pack

Рекомендуем

Repack

30

ВАЖНО

RePack

MK11

RePack

jed

RePack

fifa19

RePack

RDR2

RePack

NEED FOR SPEED™ PAYBACK

Кинопоиск HD

6 сезон

 Острые козырьки 6 сезон

Все сериалы

все сериалы на PB.wtf

RePack

FAR CRY 5
  
Magnet ссылка

Спасибо за вашу службу / Thank You for Your Service (Джейсон Холл) [2017, драма, военный, биография, WEB-DL 1080p] [ENG] pb.wtf

Спасибо за вашу службу через торрент pb.wtf

Размер: 3.81 GB | Добавлен: 4 года 7 мес. назад | Торрент скачан:31 раз
Смотреть онлайн Спасибо за вашу службу | Скачать    Ребята, помогите собрать деньги на оплату серверов!!!

09-01-2018 20:40 Спасибо за вашу службу Скачать торрент  

Спасибо за вашу службу / Thank You for Your Service
Год выхода : 2017
Жанр : драма, военный, биография
Страна : США
Продолжительность : 01:48:37
Перевод : Отсутствует! [английский оригинал]
Субтитры : английские

Режиссер : Джейсон Холл

В главных ролях: Хейли Беннетт, Майлз Теллер, Джо Коул, Эми Шумер, Киша Касл-Хьюз, Керри Кехилл, Кейт Лин Шейл, Эрин Майя Дарк, Брэд Бейер, Джэйсон Уорнер Смит

Описание: История о трёх ветеранах иракской войны, которые возвращаются в США, но не могут снова влиться в мирную жизнь. Выжившие на линии огня, они обнаруживают себя под ударом собственных воспоминаний, способных погубить их даже в родных стенах.



Файл
Качество : WEB-DL 1080p
Формат видео : MKV
Видео : AVC, 1916x796, 23,976 fps, 4600 Kbps
Звук : AC3, 48.0 KHz, 6 ch, ~384 Kbps
Video
ID : 1
Format : AVC
Format/Info : Advanced Video Codec
Format profile : [email protected]
Format settings : CABAC / 5 Ref Frames
Format settings, CABAC : Yes
Format settings, ReFrames : 5 frames
Codec ID : V_MPEG4/ISO/AVC
Duration : 1 h 48 min
Bit rate : 4 619 kb/s
Width : 1 916 pixels
Height : 796 pixels
Display aspect ratio : 2.40:1
Frame rate mode : Constant
Frame rate : 23.976 (23976/1000) FPS
Color space : YUV
Chroma subsampling : 4:2:0
Bit depth : 8 bits
Scan type : Progressive
Bits/(Pixel*Frame) : 0.126
Stream size : 3.52 GiB (92%)
Title : Thank.You.for.Your.Service.2017.1080p.WEB-DL.DD5.1.H264-FGT
Language : English
Default : Yes
Forced : No
Color range : Limited
Color primaries : BT.709
Transfer characteristics : BT.709
Matrix coefficients : BT.709

Audio
ID : 2
Format : AC-3
Format/Info : Audio Coding 3
Codec ID : A_AC3
Duration : 1 h 48 min
Bit rate mode : Constant
Bit rate : 384 kb/s
Channel(s) : 6 channels
Channel positions : Front: L C R, Side: L R, LFE
Sampling rate : 48.0 kHz
Frame rate : 31.250 FPS (1536 SPF)
Bit depth : 16 bits
Compression mode : Lossy
Delay relative to video : -42 ms
Stream size : 299 MiB (8%)
Title : Thank.You.for.Your.Service.2017.1080p.WEB-DL.DD5.1.H264-FGT
Language : English
Service kind : Complete Main
Default : Yes
Forced : No

Text
ID : 3
Format : UTF-8
Codec ID : S_TEXT/UTF8
Codec ID/Info : UTF-8 Plain Text
Duration : 1 h 40 min
Bit rate : 48 b/s
Count of elements : 1364
Stream size : 36.0 KiB (0%)
Language : English
Default : Yes
Forced : No

Menu
00:00:00.000 : en:1
00:05:55.397 : en:2
00:13:10.081 : en:3
00:18:47.668 : en:4
00:22:52.371 : en:5
00:28:07.602 : en:6
00:35:26.916 : en:7
00:39:10.681 : en:8
00:45:48.245 : en:9
00:49:54.491 : en:10
00:52:07.290 : en:11
00:57:44.210 : en:12
01:04:08.093 : en:13
01:11:22.569 : en:14
01:16:42.597 : en:15
01:21:40.686 : en:16
01:26:15.877 : en:17
01:32:19.740 : en:18
01:41:06.558 : en:19
01:42:59.587 : en:20
pb.wtf



Скачать Спасибо за вашу службу через торрент http://i101.fastpic.ru/big/2018/0109/80/04477df1b68f28980686bd850db92480.jpg Скачать, смотреть онлайн Спасибо за вашу службу бесплантно в хорошем качестве Описание: История о трёх ветеранах иракской войны, которые возвращаются в США, но не могут снова влиться в мирную жизнь. Выжившие на линии ... 10 10 1
Торрент: Зарегистрирован [2018-01-09 20:40] · скачан: 31 раз
Статус: √ проверено
Размер: 3.81 GB
Как cкачать? Как скачать Спасибо за вашу службу через торрент | UTorrent

% Раздел Тема Автор DL S | L
Фильмы 2017 [DVDrip, WEB-DLRip, HDrip] (DUB, MVO) [ 2.18 GB ] Спасибо за вашу службу / Thank You for Your Service [2017 военный биография BDRip] - [официальный] Twi7ter Скачать
1 | 0
Фильмы 2017 [DVDrip, WEB-DLRip, HDrip] (DUB, MVO) [ 1.46 GB ] Спасибо за вашу службу / Thank You for Your Service [2017 военный биография BDRip] - [официальный] Twi7ter Скачать
1 | 0
Фильмы 2017 [DVDrip, WEB-DLRip, HDrip] (DUB, MVO) [ 1.46 GB ] Спасибо за вашу службу / Thank You for Your Service [2017 военный биография BDRip] DUB bober100 Скачать
1 | 0
R.G. Resident & PiratVoice - Фильмы, Видео [ 1.45 GB ] Спасибо за вашу службу / Thank You for Your Service [2017 военный биография HDRip от R.G. Resident] MVO [HDrezka Studio] -Lexx- Скачать
1 | 0
Фильмы [HD 720p, 1080p] (Хороший звук DUB, MVO) [ 8.51 GB ] Спасибо за вашу службу / Thank You for Your Service [2017 военный биография BDRip 1080p] MVO [HDrezka Studio] -Lexx- Скачать
1 | 0
Фильмы с украинским озвучиванием [ 1.27 GB ] Спасибо за вашу службу / Thank You for Your Service [2017 военный биография BDRip] [Ukr DUB] killermax2013 Скачать
1 | 0
T Релизы по Парсеру [Игры, Сериалы и Фильмы и другое...] [ 3.42 GB ] Спасибо за вашу службу / Thank You for Your Service [2017 военный биография BDRip 720p] [MVO] killermax2013 Скачать
1 | 0

28-11-2019 20:33  

Отключить вcю реклaмy на сайте

09-01-2018 20:41 Спасибо за вашу службу Скачать торрент  



pb.wtf



10-01-2018 07:22 Спасибо за вашу службу Скачать торрент  

"не могут снова влиться в мирную жизнь", потому что привыкли убивать, насиловать, калечить, пытать и вообще нести демократию. а тут приехали домой - и оп! - дома демократия какая-то не такая, особо и не покалечишь-поубиваешь.. как говорил Задорнов - тупыыыые, не догадались в полицейские пойти - этим можно немножко демократию и дома нестиpb.wtf



    Дорогой пользователь! Огромная просьба, поблагодарите релизера, оцените раздачу и оставьте свои комментарий, если Вы скачали Спасибо за вашу службу через торрент бесплатно!
    Комментировать посты могут только пользователи прошедшие не сложную регистрацию
    Показать сообщения:    

    Спасибо за вашу службу через торрент
    Скачать бесплатно Спасибо за вашу службу
    Спасибо за вашу службу скачать торрент
    Спасибо за вашу службу смотреть онлайн
    Cкачать фильм Спасибо за вашу службу бесплатно
    Спасибо за вашу службу скачать торрент в хорошем качестве
    Спасибо за вашу службу смотреть онлайн бесплатно в хорошем качестве


    Вы не можете начинать темы
    Вы не можете отвечать на сообщения
    Вы не можете редактировать свои сообщения
    Вы не можете удалять свои сообщения
    Вы не можете голосовать в опросах
    Вы не можете прикреплять файлы к сообщениям
    Вы можете скачивать файлы