Всегда рабочее зеркало без VPN и Proxy просто перед .vidak.icu напиши любое слово или цифру, Пример http://brcw.vidak.icu

MVO

2 сезон

1 сезон

1

1 сезон

iTunes

2 сезон

13

1 сезон

Распродажа

pack

Рекомендуем

Пиратка

30

ВАЖНО

RePack

MK11

RePack

jed

RePack

fifa19

RePack

RDR2

RePack

NEED FOR SPEED™ PAYBACK

Кинопоиск HD

6 сезон

 Острые козырьки 6 сезон

Все сериалы

все сериалы на PB.wtf

RePack

FAR CRY 5

Anonymous, нам критически не хватает 5601 руб. на оплату серверов и переферии за Апрель, помоги нам пожалуйста, вся надежда только на тебя. В благодарность мы отключим тебе всю рекламу на сайте!

×
  
Magnet ссылка

Дочери танца / Córki dancingu (Агнешка Смочиньска) [2015, мюзикл, ужасы, драма, комедия, BDRip 720p by msltel] AVO pb.wtf

Дочери танца через торрент pb.wtf

Размер: 3.54 GB | Добавлен: 4 года 4 мес. назад | Торрент скачан:11 раз
Смотреть онлайн Дочери танца | Скачать    Ребята, помогите собрать деньги на оплату серверов!!!

11-01-2018 07:53 Дочери танца Скачать торрент  

Название: Дочери танца
Оригинальное название: Córki dancingu
Год выпуска: 2015
Страна: Польша
Жанр: мюзикл, ужасы, драма, комедия
Продолжительность: 01:32:28
Перевод: авторский

Режиссер: Агнешка Смочиньска
В ролях: Марта Мазурек, Михалина Ольшанска, Кинга Прейс, Анджей Конопка, Якуб Гершал, Зигмунт Малянович, Магдалена Целецка, Катажина Херман, Марцин Ковальчик, Джоэнна Нимирская

О фильме: Владельцу ночного клуба однажды приводят двух молоденьких русалок Злату и Сребну. Заинтригованный приятным пением и грациозными хвостами сирен, он приглашает необычных девушек выступать в его клубе. Там Злата и Сребна становятся звёздами и, заодно, в ускоренном темпе проходя все этапы взросления. И чего только нет в фильме! Мюзикл смешивается с романтической киноповестью, кровавый хоррор сплетается в одно целое с романтическими балладами и с ностальгической историей о созревании и силе любви... За основу сюжета взята сказка «Русалочка» (1837) Ганса Кристиана Андерсена.



Качество: BDRip 720p
Формат: MKV
Видео: MPEG-4 AVC, 4586 Кбит/сек, 1280x536, 23,976 кадр/с
Аудио 1: русский, AC3, 448 kbps, 6 ch, 48 kHz [авторский, Андрей Дольский]
Аудио 2: польский, AC3, 448 kbps, 6 ch, 48 kHz [оригинал]
Субтитры: английские
Неименованные главы/чаптеры.
Общее
Уникальный идентификатор : 174880959252402679242690018688685475451 (0x8390D8FD25F7855DB3FE66DE1462867B)
Полное имя : D:\Video\Дочери танца.2015.BDRip.720p by msltel.mkv
Формат : Matroska
Версия формата : Version 4 / Version 2
Размер файла : 3,54 Гбайт
Продолжительность : 1 ч. 32 м.
Общий поток : 5484 Кбит/сек
Название фильма : Rip by msltel
Дата кодирования : UTC 2018-01-11 03:04:15
Программа кодирования : mkvmerge v8.2.0 ('World of Adventure') 64bit
Библиотека кодирования : libebml v1.3.1 + libmatroska v1.4.2

Видео
Идентификатор : 1
Формат : AVC
Формат/Информация : Advanced Video Codec
Профиль формата : High@L4.1
Настройки формата : CABAC / 9 Ref Frames
Параметр CABAC формата : Да
Параметр RefFrames формата : 9 кадров
Идентификатор кодека : V_MPEG4/ISO/AVC
Продолжительность : 1 ч. 32 м.
Битрейт : 4586 Кбит/сек
Ширина : 1280 пикселей
Высота : 536 пикселей
Соотношение сторон : 2,40:1
Режим частоты кадров : Постоянный
Частота кадров : 23,976 (24000/1001) кадра/сек
Цветовое пространство : YUV
Субдискретизация насыщенности : 4:2:0
Битовая глубина : 8 бит
Тип развёртки : Прогрессивная
Бит/(Пиксели*Кадры) : 0.279
Размер потока : 2,96 Гбайт (84%)
Библиотека кодирования : x264 core 146 r2538 121396c
Настройки программы : cabac=1 / ref=9 / deblock=1:-3:-2 / analyse=0x3:0x113 / me=umh / subme=11 / psy=1 / psy_rd=1.00:0.15 / mixed_ref=1 / me_range=32 / chroma_me=1 / trellis=2 / 8x8dct=1 / cqm=0 / deadzone=21,11 / fast_pskip=0 / chroma_qp_offset=-3 / threads=6 / lookahead_threads=1 / sliced_threads=0 / nr=0 / decimate=1 / interlaced=0 / bluray_compat=0 / constrained_intra=0 / bframes=6 / b_pyramid=2 / b_adapt=2 / b_bias=0 / direct=1 / weightb=1 / open_gop=0 / weightp=2 / keyint=230 / keyint_min=23 / scenecut=40 / intra_refresh=0 / rc_lookahead=40 / rc=crf / mbtree=0 / crf=18.3 / qcomp=0.60 / qpmin=0 / qpmax=69 / qpstep=4 / vbv_maxrate=62500 / vbv_bufsize=78125 / crf_max=0.0 / nal_hrd=none / filler=0 / ip_ratio=1.40 / pb_ratio=1.30 / aq=1:1.00
Язык : Polish
Default : Да
Forced : Нет

Аудио #1
Идентификатор : 2
Формат : AC-3
Формат/Информация : Audio Coding 3
Идентификатор кодека : A_AC3
Продолжительность : 1 ч. 32 м.
Вид битрейта : Постоянный
Битрейт : 448 Кбит/сек
Каналы : 6 каналов
Расположение каналов : Front: L C R, Side: L R, LFE
Частота : 48,0 КГц
Частота кадров : 31,250 кадров/сек (1536 SPF)
Битовая глубина : 16 бит
Метод сжатия : С потерями
Размер потока : 296 Мбайт (8%)
Заголовок : Андрей Дольский
Язык : Russian
ServiceKind/String : Complete Main
Default : Да
Forced : Нет

Аудио #2
Идентификатор : 3
Формат : AC-3
Формат/Информация : Audio Coding 3
Идентификатор кодека : A_AC3
Продолжительность : 1 ч. 32 м.
Вид битрейта : Постоянный
Битрейт : 448 Кбит/сек
Каналы : 6 каналов
Расположение каналов : Front: L C R, Side: L R, LFE
Частота : 48,0 КГц
Частота кадров : 31,250 кадров/сек (1536 SPF)
Битовая глубина : 16 бит
Метод сжатия : С потерями
Размер потока : 296 Мбайт (8%)
Заголовок : original
Язык : Polish
ServiceKind/String : Complete Main
Default : Нет
Forced : Нет

Текст
Идентификатор : 4
Формат : UTF-8
Идентификатор кодека : S_TEXT/UTF8
Идентификатор кодека/Информация : UTF-8 Plain Text
Продолжительность : 1 ч. 28 м.
Битрейт : 25 бит/сек
ElementCount : 499
Размер потока : 16,6 Кбайт (0%)
Язык : English
Default : Нет
Forced : Нет

Меню
00:00:00.000 : en:Chapter 1
00:09:03.960 : en:Chapter 2
00:16:02.128 : en:Chapter 3
00:18:45.750 : en:Chapter 4
00:24:09.615 : en:Chapter 5
00:27:27.896 : en:Chapter 6
00:32:18.103 : en:Chapter 7
00:38:23.968 : en:Chapter 8
00:44:44.932 : en:Chapter 9
00:48:35.037 : en:Chapter 10
00:55:20.234 : en:Chapter 11
01:02:09.059 : en:Chapter 12
01:08:07.125 : en:Chapter 13
01:14:01.062 : en:Chapter 14
01:19:50.661 : en:Chapter 15
01:24:16.802 : en:Chapter 16
01:29:00.835 : en:Chapter 17
pb.wtf



Скачать Дочери танца через торрент https://b.radikal.ru/b06/1801/60/37c41684ba07.jpg Скачать, смотреть онлайн Дочери танца бесплантно в хорошем качестве О фильме: Владельцу ночного клуба однажды приводят двух молоденьких русалок Злату и Сребну. Заинтригованный приятным пением и грациозными ... 10 10 2
Info! Золотая раздача, скачанное не засчитывается.
Торрент: Зарегистрирован [2018-01-11 07:53] · скачан: 11 раз
Статус: √ проверено
Размер: 3.54 GB
Как cкачать? Как скачать Дочери танца через торрент | UTorrent

28-11-2019 20:33  

Отключить всю рекламу на сайте

    Дорогой пользователь! Огромная просьба, поблагодарите релизера, оцените раздачу и оставьте свои комментарий, если Вы скачали Дочери танца через торрент бесплатно!
    Комментировать посты могут только пользователи прошедшие не сложную регистрацию
    Показать сообщения:    

    Дочери танца через торрент
    Скачать бесплатно Дочери танца
    Дочери танца скачать торрент
    Дочери танца смотреть онлайн
    Cкачать фильм Дочери танца бесплатно
    Дочери танца скачать торрент в хорошем качестве
    Дочери танца смотреть онлайн бесплатно в хорошем качестве


    Вы не можете начинать темы
    Вы не можете отвечать на сообщения
    Вы не можете редактировать свои сообщения
    Вы не можете удалять свои сообщения
    Вы не можете голосовать в опросах
    Вы не можете прикреплять файлы к сообщениям
    Вы можете скачивать файлы