Ссылка на приватное зеркало нашего сайта всего за 1$. Внимание количество ограничено!!!

2 сезон

iTunes

1 сезон

1

2 сезон

2 сезон

iTunes

1 сезон

RePack

30

Новинка

ВАЖНО

ИГРА 18+

pack

RePack

MK11
pack

Забери бонус

RePack

jed

!!Акция!!

Alien_Rage

RePack

fifa19

RePack

Assassins Creed: Odyssey

RePack

NEED FOR SPEED™ PAYBACK

4 сезон

9 сезон

Бесстыжие 9 сезон

Все сериалы

все сериалы на PB.wtf

RePack

FAR CRY 5
  

Орфей / Orphee (Жан Кокто) [1950, фэнтези, драма, мелодрама, BDRip 720p by msltel] DUB, 2 x MVO pb.wtf

Орфей через торрент pb.wtf

Размер: 3.95 GB | Добавлен: 2 года 10 мес. назад | Торрент скачан:11 раз
Скачать  

15-01-2018 09:15 Орфей Скачать торрент  

Название: Орфей
Оригинальное название: Orphee
Год выпуска: 1950
Страна: Франция
Жанр: фэнтези, драма, мелодрама
Продолжительность: 01:36:01
Перевод: дублированный, профессиональный многоголосый

Режиссер: Жан Кокто
В ролях: Жан Марэ, Мария Казарес, Франсуа Перье, Мари Деа, Эдуар Дермит, Пьер Бертен, Жюльетт Греко, Роже Блен, Анри Кремье, Морис Карнеже, Рене Вормс, Раймон Фор, Жак Варенн

О фильме: Поэты, чаще других размышляющие о смерти, склонны романтизировать её, рисуя как деву в белом. Великий авангардист, поэт, художник, режиссёр, сценарист Жан Кокто обращается к легенде об Орфее и Эвридике, перенеся действие в современную для него Францию. Гордость французской поэзии Орфей, которого все узнают на улицах, любит свою жену Эвридику, но, однажды встретившись со Смертью, дамой в чёрном, не может её забыть. Его душа раздваивается. Он по-прежнему любит Эвридику, но новизна и тайна зовут его на поиски дамы в чёрном. Артебиз, слуга Смерти, увидев Эвридику, безумно в неё влюбляется, а сама Смерть влюбляется в Орфея, посещая его спальню по ночам. Чистая и любящая Эвридика не может понять перемены, произошедшей с Орфеем; она боится признаться в своей ревности даже самой себе, но очень обеспокоена тем, что муж принимает странные сигналы в виде цифр и фраз по радиоприёмнику в своей машине. Смерти не позволено влюбляться в земных живых людей и, тем более, забирать с собой кого-либо. Однако она нарушает приказ и забирает с собой Эвридику, зная, что Артебиз приведёт к ней Орфея, который перешагнёт черту жизни и смерти в поисках своей жены. Поэт любит их обеих в чём и признается Артебизу. Все предстают перед трибуналом. Эвридика может вернуться в мир живых вместе с мужем, но если Орфей хоть раз взглянет на неё, она снова вернётся в царство мёртвых. Саму Смерть ждёт ещё худшее наказание. Зная всё это, она, тем не менее, даёт Орфею клятву, что найдёт возможность остаться с ним навсегда. Орфей и Эвридика возвращаются домой. Но не смотреть на Эвридику Орфею не удаётся, и она исчезает. Смерть завершает творческий путь поэта, и через неё обретает он свое бессмертие.



Качество: BDRip 720p
Формат: MKV
Видео: MPEG-4 AVC, 5117 Kбит/с, 960x720, 23.976 кадр/с
Аудио 1: русский, AC3, 192 kbps, 2 ch, 48 kHz [дублированный]
Аудио 2: русский, AC3, 192 kbps, 2 ch, 48 kHz [профессиональный многоголосый]
Аудио 3: русский, AC3, 192 kbps, 2 ch, 48 kHz [профессиональный многоголосый, Cinema Prestige]
Аудио 4: французский, AC3, 192 kbps, 1 ch, 48 kHz [оригинал]
Субтитры 1: русские
Субтитры 2: английские
Неименованные главы/чаптеры.
Общее
Уникальный идентификатор : 176231702715172877123399428701064291145 (0x8494FDC8853FC55EADCDE89C4B346349)
Полное имя : D:\Video\Орфей.1950.BDRip.720p by msltel.mkv
Формат : Matroska
Версия формата : Version 4 / Version 2
Размер файла : 3,95 Гбайт
Продолжительность : 1 ч. 36 м.
Общий поток : 5887 Кбит/сек
Название фильма : Rip by msltel
Дата кодирования : UTC 2018-01-15 03:56:58
Программа кодирования : mkvmerge v8.2.0 ('World of Adventure') 64bit
Библиотека кодирования : libebml v1.3.1 + libmatroska v1.4.2

Видео
Идентификатор : 1
Формат : AVC
Формат/Информация : Advanced Video Codec
Профиль формата : High@L4.1
Настройки формата : CABAC / 9 Ref Frames
Параметр CABAC формата : Да
Параметр RefFrames формата : 9 кадров
Идентификатор кодека : V_MPEG4/ISO/AVC
Продолжительность : 1 ч. 36 м.
Битрейт : 5117 Кбит/сек
Ширина : 960 пикселей
Высота : 720 пикселей
Соотношение сторон : 4:3
Режим частоты кадров : Постоянный
Частота кадров : 23,976 (24000/1001) кадра/сек
Цветовое пространство : YUV
Субдискретизация насыщенности : 4:2:0
Битовая глубина : 8 бит
Тип развёртки : Прогрессивная
Бит/(Пиксели*Кадры) : 0.309
Размер потока : 3,43 Гбайт (87%)
Библиотека кодирования : x264 core 146 r2538 121396c
Настройки программы : cabac=1 / ref=9 / deblock=1:-3:-2 / analyse=0x3:0x113 / me=umh / subme=11 / psy=1 / psy_rd=1.00:0.15 / mixed_ref=1 / me_range=32 / chroma_me=1 / trellis=2 / 8x8dct=1 / cqm=0 / deadzone=21,11 / fast_pskip=0 / chroma_qp_offset=-3 / threads=6 / lookahead_threads=1 / sliced_threads=0 / nr=0 / decimate=1 / interlaced=0 / bluray_compat=0 / constrained_intra=0 / bframes=11 / b_pyramid=2 / b_adapt=2 / b_bias=0 / direct=1 / weightb=1 / open_gop=0 / weightp=2 / keyint=230 / keyint_min=23 / scenecut=40 / intra_refresh=0 / rc_lookahead=40 / rc=crf / mbtree=0 / crf=18.5 / qcomp=0.60 / qpmin=0 / qpmax=69 / qpstep=4 / vbv_maxrate=62500 / vbv_bufsize=78125 / crf_max=0.0 / nal_hrd=none / filler=0 / ip_ratio=1.40 / pb_ratio=1.30 / aq=1:1.00
Язык : French
Default : Да
Forced : Нет

Аудио #1
Идентификатор : 2
Формат : AC-3
Формат/Информация : Audio Coding 3
Идентификатор кодека : A_AC3
Продолжительность : 1 ч. 36 м.
Вид битрейта : Постоянный
Битрейт : 192 Кбит/сек
Каналы : 2 канала
Расположение каналов : Front: L R
Частота : 48,0 КГц
Частота кадров : 31,250 кадров/сек (1536 SPF)
Битовая глубина : 16 бит
Метод сжатия : С потерями
Размер потока : 132 Мбайт (3%)
Заголовок : DUB
Язык : Russian
ServiceKind/String : Complete Main
Default : Да
Forced : Нет

Аудио #2
Идентификатор : 3
Формат : AC-3
Формат/Информация : Audio Coding 3
Идентификатор кодека : A_AC3
Продолжительность : 1 ч. 36 м.
Вид битрейта : Постоянный
Битрейт : 192 Кбит/сек
Каналы : 2 канала
Расположение каналов : Front: L R
Частота : 48,0 КГц
Частота кадров : 31,250 кадров/сек (1536 SPF)
Битовая глубина : 16 бит
Метод сжатия : С потерями
Размер потока : 132 Мбайт (3%)
Заголовок : MVO
Язык : Russian
ServiceKind/String : Complete Main
Default : Нет
Forced : Нет

Аудио #3
Идентификатор : 4
Формат : AC-3
Формат/Информация : Audio Coding 3
Идентификатор кодека : A_AC3
Продолжительность : 1 ч. 36 м.
Вид битрейта : Постоянный
Битрейт : 192 Кбит/сек
Каналы : 2 канала
Расположение каналов : Front: L R
Частота : 48,0 КГц
Частота кадров : 31,250 кадров/сек (1536 SPF)
Битовая глубина : 16 бит
Метод сжатия : С потерями
Размер потока : 132 Мбайт (3%)
Заголовок : MVO.Cinema Prestige
Язык : Russian
ServiceKind/String : Complete Main
Default : Нет
Forced : Нет

Аудио #4
Идентификатор : 5
Формат : AC-3
Формат/Информация : Audio Coding 3
Идентификатор кодека : A_AC3
Продолжительность : 1 ч. 36 м.
Вид битрейта : Постоянный
Битрейт : 192 Кбит/сек
Каналы : 1 канал
Расположение каналов : Front: C
Частота : 48,0 КГц
Частота кадров : 31,250 кадров/сек (1536 SPF)
Битовая глубина : 16 бит
Метод сжатия : С потерями
Размер потока : 132 Мбайт (3%)
Заголовок : original
Язык : French
ServiceKind/String : Complete Main
Default : Нет
Forced : Нет

Текст #1
Идентификатор : 6
Формат : UTF-8
Идентификатор кодека : S_TEXT/UTF8
Идентификатор кодека/Информация : UTF-8 Plain Text
Продолжительность : 1 ч. 32 м.
Битрейт : 74 бит/сек
ElementCount : 1138
Размер потока : 50,4 Кбайт (0%)
Заголовок : русские
Язык : Russian
Default : Нет
Forced : Нет

Текст #2
Идентификатор : 7
Формат : UTF-8
Идентификатор кодека : S_TEXT/UTF8
Идентификатор кодека/Информация : UTF-8 Plain Text
Продолжительность : 1 ч. 32 м.
Битрейт : 52 бит/сек
ElementCount : 1144
Размер потока : 35,4 Кбайт (0%)
Заголовок : английские
Язык : English
Default : Нет
Forced : Нет

Меню
00:00:00.000 : :Chapter 01
00:03:18.405 : :Chapter 02
00:10:56.696 : :Chapter 03
00:13:48.743 : :Chapter 04
00:19:07.354 : :Chapter 05
00:26:56.572 : :Chapter 06
00:31:08.283 : :Chapter 07
00:37:55.815 : :Chapter 08
00:43:51.128 : :Chapter 09
00:51:48.772 : :Chapter 10
00:58:32.759 : :Chapter 11
01:01:24.514 : :Chapter 12
01:07:45.436 : :Chapter 13
01:12:42.399 : :Chapter 14
01:19:34.060 : :Chapter 15
01:24:35.945 : :Chapter 16
01:33:07.122 : :Chapter 17
01:36:01.546 : :Chapter 18
pb.wtf



Скачать Орфей через торрент https://b.radikal.ru/b09/1801/37/8fa3463103ae.jpg Скачать фильм Орфей через торрент бесплантно в хорошем качестве О фильме: Поэты, чаще других размышляющие о смерти, склонны романтизировать её, рисуя как деву в белом. Великий авангардист, поэт, ... 5.5 10 2
Info! Золотая раздача, скачанное не засчитывается.
Торрент: Зарегистрирован [2018-01-15 09:15] · скачан: 11 раз
Статус: √ проверено
Размер: 3.95 GB
Как cкачать? Как скачать Орфей через торрент | qTorrent

% Раздел Тема Автор DL S | L
Фильмы [HD 720p, 1080p] (Хороший звук DUB, MVO) [ 9.79 GB ] Орфей / Orphee [1950 BDRip 1080p by msltel] DUB 2 x MVO msltel Скачать
1 | 0

28-11-2019 20:33  

Отключить всю рекламу на сайте

    Дорогой пользователь! Огромная просьба, поблагодарите релизера, оцените раздачу и оставьте свои комментарий, если Вы скачали Орфей через торрент бесплатно! Внесите свою лепту в развитие PiratBit!
    Комментировать посты могут только пользователи прошедшие не сложную регистрацию
    Показать сообщения:    

    Орфей через торрент
    Скачать бесплатно Орфей
    Орфей скачать торрент
    Орфей смотреть онлайн
    Cкачать фильм Орфей бесплатно
    Орфей скачать торрент в хорошем качестве
    Орфей смотреть онлайн бесплатно в хорошем качестве


    Вы не можете начинать темы
    Вы не можете отвечать на сообщения
    Вы не можете редактировать свои сообщения
    Вы не можете удалять свои сообщения
    Вы не можете голосовать в опросах
    Вы не можете прикреплять файлы к сообщениям
    Вы можете скачивать файлы