Ссылка на приватное зеркало нашего сайта всего за 1$. Внимание количество ограничено!!!

2 сезон

iTunes

1 сезон

1

2 сезон

2 сезон

iTunes

1 сезон

RePack

30

Ultimate

ВАЖНО

ИГРА 18+

pack

RePack

MK11
pack

Забери бонус

RePack

jed

!!Акция!!

Alien_Rage

RePack

fifa19

RePack

Assassins Creed: Odyssey

RePack

NEED FOR SPEED™ PAYBACK

4 сезон

9 сезон

Бесстыжие 9 сезон

Все сериалы

все сериалы на PB.wtf

RePack

FAR CRY 5
  

Убийство священного оленя / The Killing of a Sacred Deer (Йоргос Лантимос) [2017, ужасы, триллер, драма, детектив, BDRip 1080p] MVO [Студия "Paradox" & Omskbird records] +AVO [BadBajo] pb.wtf

Убийство священного оленя через торрент pb.wtf

Размер: 10.32 GB | Добавлен: 2 года 10 мес. назад | Торрент скачан:345 раз
Скачать  

18-01-2018 06:27 Убийство священного оленя Скачать торрент  

Убийство священного оленя / The Killing of a Sacred DeerГод выпуска: 2017
Страна: Ирландия, США
Жанр: ужасы, триллер, драма, детектив
Продолжительность: 02:01:02

Перевод:

Любительский (многоголосый) (Студия "Paradox" & Omskbird records),
Авторское одноголосое (BadBajo)

Субтитры: Русские, английские

Режиссер: Йоргос Лантимос

rating

В ролях:

Николь Кидман, Колин Фаррелл, Алисия Сильверстоун, Барри Кеоган, Рэффи Кэссиди, Билл Кэмп, Санни Сулджик

Описание:

Талантливый кардиохирург Стивен живет счастливой жизнью с женой Анной и двумя прелестными детьми. Этой семейной идиллии угрожает призрак из прошлого, которое Стивену больше не под силу скрывать.

Качество: BDRip 1080p
Формат: MKV

Видео: MPEG-4 AVC, 10.1 Мбит/с, 1920x1040
Аудио#1: Русский (AC3, 2 ch, 192 Кбит/с) - Paradox" & Omskbird records
Аудио#2: Русский (AC3, 6 ch, 384 Кбит/с) - BadBajo
Аудио#3: английский (DTS, 6 ch, 1510 Кбит/с)

Без какой-либо рекламы
скриншот  скриншот  скриншот  

General
Complete name : The.Killing.Of.A.Sacred.Deer.2017.BDRip.1080p.NNMClub.mkv
Format : Matroska
Format version : Version 4 / Version 2
File size : 10.3 GiB
Duration : 2 h 1 min
Overall bit rate : 12.2 Mb/s
Encoded date : UTC 2018-01-17 07:51:18
Writing application : mkvmerge v20.0.0 ('I Am The Sun') 64-bit
Writing library : libebml v1.3.5 + libmatroska v1.4.8

Video
ID : 1
Format : AVC
Format/Info : Advanced Video Codec
Format profile : High@L4.1
Format settings : CABAC / 4 Ref Frames
Format settings, CABAC : Yes
Format settings, ReFrames : 4 frames
Codec ID : V_MPEG4/ISO/AVC
Duration : 2 h 1 min
Bit rate : 10.1 Mb/s
Width : 1 920 pixels
Height : 1 040 pixels
Display aspect ratio : 1.85:1
Frame rate mode : Constant
Frame rate : 23.976 (24000/1001) FPS
Color space : YUV
Chroma subsampling : 4:2:0
Bit depth : 8 bits
Scan type : Progressive
Bits/(Pixel*Frame) : 0.211
Stream size : 8.55 GiB (83%)
Writing library : x264 core 152 r2851 ba24899
Encoding settings : cabac=1 / ref=4 / deblock=1:0:0 / analyse=0x3:0x113 / me=umh / subme=8 / psy=1 / psy_rd=1.00:0.00 / mixed_ref=1 / me_range=16 / chroma_me=1 / trellis=1 / 8x8dct=1 / cqm=0 / deadzone=21,11 / fast_pskip=1 / chroma_qp_offset=-2 / threads=24 / lookahead_threads=4 / sliced_threads=0 / nr=0 / decimate=1 / interlaced=0 / bluray_compat=0 / constrained_intra=0 / bframes=3 / b_pyramid=2 / b_adapt=1 / b_bias=0 / direct=3 / weightb=1 / open_gop=0 / weightp=2 / keyint=240 / keyint_min=24 / scenecut=40 / intra_refresh=0 / rc_lookahead=50 / rc=2pass / mbtree=1 / bitrate=10120 / ratetol=1.0 / qcomp=0.60 / qpmin=0 / qpmax=69 / qpstep=4 / cplxblur=20.0 / qblur=0.5 / ip_ratio=1.40 / aq=1:1.00
Language : English
Default : Yes
Forced : No

Audio #1
ID : 2
Format : AC-3
Format/Info : Audio Coding 3
Codec ID : A_AC3
Duration : 2 h 1 min
Bit rate mode : Constant
Bit rate : 192 kb/s
Channel(s) : 2 channels
Channel positions : Front: L R
Sampling rate : 48.0 kHz
Frame rate : 31.250 FPS (1536 SPF)
Bit depth : 16 bits
Compression mode : Lossy
Stream size : 166 MiB (2%)
Title : MVO-Paradox & Omskbird records
Language : Russian
Service kind : Complete Main
Default : Yes
Forced : No

Audio #2
ID : 3
Format : AC-3
Format/Info : Audio Coding 3
Codec ID : A_AC3
Duration : 2 h 1 min
Bit rate mode : Constant
Bit rate : 384 kb/s
Channel(s) : 6 channels
Channel positions : Front: L C R, Side: L R, LFE
Sampling rate : 48.0 kHz
Frame rate : 31.250 FPS (1536 SPF)
Bit depth : 16 bits
Compression mode : Lossy
Stream size : 332 MiB (3%)
Title : AVO-BadBajo
Language : Russian
Service kind : Complete Main
Default : No
Forced : No

Audio #3
ID : 4
Format : DTS
Format/Info : Digital Theater Systems
Codec ID : A_DTS
Duration : 2 h 1 min
Bit rate mode : Constant
Bit rate : 1 509 kb/s
Channel(s) : 6 channels
Channel positions : Front: L C R, Side: L R, LFE
Sampling rate : 48.0 kHz
Frame rate : 93.750 FPS (512 SPF)
Bit depth : 24 bits
Compression mode : Lossy
Stream size : 1.28 GiB (12%)
Language : English
Default : No
Forced : No

Text #1
ID : 5
Format : UTF-8
Codec ID : S_TEXT/UTF8
Codec ID/Info : UTF-8 Plain Text
Duration : 1 h 56 min
Bit rate : 95 b/s
Count of elements : 1692
Stream size : 82.0 KiB (0%)
Language : Russian
Default : No
Forced : No

Text #2
ID : 6
Format : UTF-8
Codec ID : S_TEXT/UTF8
Codec ID/Info : UTF-8 Plain Text
Duration : 1 h 46 min
Bit rate : 61 b/s
Count of elements : 1187
Stream size : 48.0 KiB (0%)
Language : English
Default : No
Forced : No

Menu
00:00:00.000 : en:00:00:00.000
00:07:03.131 : en:00:07:03.131
00:14:38.794 : en:00:14:38.794
00:22:29.807 : en:00:22:29.807
00:31:16.917 : en:00:31:16.917
00:38:06.367 : en:00:38:06.367
00:45:53.209 : en:00:45:53.209
00:51:18.492 : en:00:51:18.492
01:00:25.914 : en:01:00:25.914
01:07:06.522 : en:01:07:06.522
01:16:36.884 : en:01:16:36.884
01:25:07.769 : en:01:25:07.769
01:30:27.422 : en:01:30:27.422
01:36:43.297 : en:01:36:43.297
01:44:07.950 : en:01:44:07.950
01:53:50.532 : en:01:53:50.532

pb.wtf



Скачать Убийство священного оленя через торрент http://lostpix.com/img/2017-12/13/i8fai394zxg6kpuq2f9xacfl1.jpg Скачать фильм Убийство священного оленя через торрент бесплантно в хорошем качестве Описание: Талантливый кардиохирург Стивен живет счастливой жизнью с женой Анной и двумя прелестными детьми. Этой семейной идиллии угрожает ... 8.5 10 6
Торрент: Зарегистрирован [2018-01-18 06:27] · скачан: 345 раз
Статус: T временная
Размер: 10.32 GB
Как cкачать? Как скачать Убийство священного оленя через торрент | qTorrent

% Раздел Тема Автор DL S | L
Фильмы 2017 [DVDrip, WEB-DLRip, HDrip] (DUB, MVO) [ 2.18 GB ] Убийство священного оленя / The Killing of a Sacred Deer [2017 BDRip] MVO [Jaskier] Леонид Ильич Скачать
2 | 0
Фильмы [HD 720p, 1080p] (Хороший звук DUB, MVO) [ 11.5 GB ] Убийство священного оленя / The Killing of a Sacred Deer [2017 BDRip 720p от TeamHD & NNNB] MVO + AVO + Original + Sub _denis_100 Скачать
1 | 0
Фильмы с авторской озвучкой [ 1.46 GB ] Убийство священного оленя / The Killing of a Sacred Deer [2017 WEB-DLRip] AVO [BadBajo] - ExKinoRay Enigma2010 Скачать
2 | 0
T Фильмы 2017 [DVDrip, WEB-DLRip, HDrip] (DUB, MVO) [ 1.78 GB ] Убийство священного оленя / The Killing of a Sacred Deer [2017 HDRip] MVO AVO [BadBajo] - ExKinoRay Enigma2010 Скачать
1 | 0
# Фильмы (мультфильмы) cо спонсором показа (Новинки AVI/MKV) [ 9.32 GB ] Убийство священного оленя / The Killing of a Sacred Deer [2017 BDRip 1080p] MVO [@MUZOBOZ@] bober100 Скачать
1 | 0
# Фильмы (мультфильмы) cо спонсором показа (Новинки AVI/MKV) [ 5.16 GB ] Убийство священного оленя / The Killing of a Sacred Deer [2017 BDRip 720p] MVO [@MUZOBOZ@] bober100 Скачать
1 | 0
T Фильмы (Blu-ray, BD-Remux, HDDVD) [ 34.34 GB ] Убийство священного оленя / The Killing of a Sacred Deer [2017 BD Remux 1080p] MVO [Студия "Paradox" & Omskbird records] +AVO [BadBajo] bober100 Скачать
1 | 0

28-11-2019 20:33  

Отключить всю рекламу на сайте

18-01-2018 11:09 Убийство священного оленя Скачать торрент  

Очередной "артхаус" с завышенным в 5 раз рейтингом и кучей золотых пальм?pb.wtf



    Дорогой пользователь! Огромная просьба, поблагодарите релизера, оцените раздачу и оставьте свои комментарий, если Вы скачали Убийство священного оленя через торрент бесплатно! Внесите свою лепту в развитие PiratBit!
    Комментировать посты могут только пользователи прошедшие не сложную регистрацию
    Показать сообщения:    

    Убийство священного оленя через торрент
    Скачать бесплатно Убийство священного оленя
    Убийство священного оленя скачать торрент
    Убийство священного оленя смотреть онлайн
    Cкачать фильм Убийство священного оленя бесплатно
    Убийство священного оленя скачать торрент в хорошем качестве
    Убийство священного оленя смотреть онлайн бесплатно в хорошем качестве


    Вы не можете начинать темы
    Вы не можете отвечать на сообщения
    Вы не можете редактировать свои сообщения
    Вы не можете удалять свои сообщения
    Вы не можете голосовать в опросах
    Вы не можете прикреплять файлы к сообщениям
    Вы можете скачивать файлы