Ссылка на приватное зеркало нашего сайта всего за 1$. Внимание количество ограничено!!!

2 сезон

iTunes

1 сезон

1

iTunes

iTunes

iTunes

1 сезон

RePack

30

ИГРА 18+

pack

ВАЖНО

!!Акция!!

Alien_RageХит недели

RePack

MK11
pack

Забери бонус

RePack

jed

!!Акция!!

Alien_Rage

RePack

fifa19

RePack

Assassins Creed: Odyssey

RePack

NEED FOR SPEED™ PAYBACK

4 сезон

9 сезон

Бесстыжие 9 сезон

Все сериалы

все сериалы на PB.wtf

RePack

FAR CRY 5
  

Любовь найдёт тебя в Валентайне / Love Finds You in Valentine (Терри Каннингэм) [2016, драма, мелодрама, BDRip 720p] MVO ["Синема УС"] pb.wtf

Любовь найдёт тебя в Валентайне через торрент pb.wtf

Размер: 3.82 GB | Добавлен: 2 года 9 мес. назад | Торрент скачан:18 раз
Скачать  

19-01-2018 16:33 Любовь найдёт тебя в Валентайне Скачать торрент  

Любовь найдёт тебя в Валентайне / Love Finds You in ValentineГод выпуска: 2016
Страна: США
Жанр: драма, мелодрама
Продолжительность: 01:32:01
Перевод: Любительский (многоголосый) ["Синема УС"]
Субтитры: отсутствуют

Режиссер: Терри Каннингэм

rating

В ролях:

Михаэлла МакМанус, Диого Моргадо, Хантер Кросс, Джеймс Кисики, Джон Эби, Дэнни Риос, Брайан Бартельс, Марианн Нэйджел, Линдсей Вагнер

Описание:

Студентка юридического факультета Кеннеди Блейн наследует ранчо в маленьком городке Валентайн, штат Небраска. Она едет в Валентайн с экспертом по продаже ранчо, но ее сердце заполняет красота этого района - и бригадира ранчо Дерека Стерлинг. Поставив свою жизнь в Лос Анжелесе на паузу, она решает провести некоторое время в наследственном доме, несмотря на давнюю вражду, она хочет восстановить связь с членами семьи, в том числе и ее дедушкой, Габриэлем Морганом. Но вскоре Кеннеди подвергается преследованиям со стороны кого-то, кто явно хочет, чтобы она оставила Валентайн. К оказанию помощи спешит Джун, она ставит своей целью узнать, кто стоит за преступлениями.

Качество: BDRip 720p
Формат: MKV
Видео кодек: H.264
Аудио кодек: AC3

Видео: 5500 Кбит/с, 1280x720
Аудио#1: Русский, (AC3, 2 ch, 448 Кбит/с)

скриншот  скриншот  скриншот  

Общее
Уникальный идентификатор : 250035762838488083763524258545827500008 (0xBC1B22E35DC820788D79CA94976ECFE8)
Полное имя : D:\Love.finds.you.in.Valentine.2016.P.BDRip.72Op_KOSHARA.mkv
Формат : Matroska
Версия формата : Version 2
Размер файла : 3,82 Гбайт
Продолжительность : 1 ч. 32 м.
Режим общего битрейта : Переменный
Общий поток : 5950 Кбит/сек
Дата кодирования : UTC 2018-01-19 06:29:14
Программа кодирования : mkvmerge v8.3.0 ('Over the Horizon') 64bit
Библиотека кодирования : libebml v1.3.1 + libmatroska v1.4.2

Видео
Идентификатор : 1
Формат : AVC
Формат/Информация : Advanced Video Codec
Профиль формата : High@L4.1
Параметр CABAC формата : Да
Параметр ReFrames формата : 9 кадров
Идентификатор кодека : V_MPEG4/ISO/AVC
Продолжительность : 1 ч. 32 м.
Вид битрейта : Переменный
Битрейт : 5500 Кбит/сек
Максимальный битрейт : 6100 Кбит/сек
Ширина : 1280 пикселей
Высота : 720 пикселей
Соотношение сторон : 16:9
Режим частоты кадров : Постоянный
Частота кадров : 23,976 (24000/1001) кадра/сек
Стандарт вещания : Component
Цветовое пространство : YUV
Субдискретизация насыщенности : 4:2:0
Битовая глубина : 8 бит
Тип развёртки : Прогрессивная
Бит/(Пиксели*Кадры) : 0.244
Размер потока : 3,46 Гбайт (90%)
Default : Да
Forced : Нет
Цветовой диапазон : Limited
Основные цвета : BT.709
Характеристики трансфера : BT.709
Коэффициенты матрицы : BT.709

Аудио
Идентификатор : 2
Формат : AC-3
Формат/Информация : Audio Coding 3
Расширение режима : CM (complete main)
Параметр Endianness формата : Big
Идентификатор кодека : A_AC3
Продолжительность : 1 ч. 32 м.
Вид битрейта : Постоянный
Битрейт : 448 Кбит/сек
Каналы : 2 канала
Расположение каналов : Front: L R
Частота : 48,0 КГц
Частота кадров : 31,250 кадров/сек (1536 spf)
Метод сжатия : С потерями
Размер потока : 295 Мбайт (8%)
Default : Да
Forced : Нет

pb.wtf



Скачать Любовь найдёт тебя в Валентайне через торрент http://img12.lostpic.net/2018/01/19/63c387dfeb7a23778b1d8a67ca08f0f7.jpg Скачать фильм Любовь найдёт тебя в Валентайне через торрент бесплантно в хорошем качестве Описание: Студентка юридического факультета Кеннеди Блейн наследует ранчо в маленьком городке Валентайн, штат Небраска. Она едет в ... 10 10 3
Торрент: Зарегистрирован [2018-01-19 16:33] · скачан: 18 раз
Статус: # сомнительно
Размер: 3.82 GB
Как cкачать? Как скачать Любовь найдёт тебя в Валентайне через торрент | qTorrent

% Раздел Тема Автор DL S | L
T Фильмы (мультфильмы) cо спонсором показа (Новинки AVI/MKV) [ 1.37 GB ] Любовь найдёт тебя в Валентайне / Love Finds You in Valentine [2016 HDRip] MVO ["Синема УС"] bober100 Скачать
1 | 0

28-11-2019 20:33  

Отключить всю рекламу на сайте

    Дорогой пользователь! Огромная просьба, поблагодарите релизера, оцените раздачу и оставьте свои комментарий, если Вы скачали Любовь найдёт тебя в Валентайне через торрент бесплатно! Внесите свою лепту в развитие PiratBit!
    Комментировать посты могут только пользователи прошедшие не сложную регистрацию
    Показать сообщения:    

    Любовь найдёт тебя в Валентайне через торрент
    Скачать бесплатно Любовь найдёт тебя в Валентайне
    Любовь найдёт тебя в Валентайне скачать торрент
    Любовь найдёт тебя в Валентайне смотреть онлайн
    Cкачать фильм Любовь найдёт тебя в Валентайне бесплатно
    Любовь найдёт тебя в Валентайне скачать торрент в хорошем качестве
    Любовь найдёт тебя в Валентайне смотреть онлайн бесплатно в хорошем качестве


    Вы не можете начинать темы
    Вы не можете отвечать на сообщения
    Вы не можете редактировать свои сообщения
    Вы не можете удалять свои сообщения
    Вы не можете голосовать в опросах
    Вы не можете прикреплять файлы к сообщениям
    Вы можете скачивать файлы