Ссылка на приватное зеркало нашего сайта всего за 1$. Внимание количество ограничено!!!

2 сезон

iTunes

1 сезон

1

iTunes

iTunes

iTunes

1 сезон

RePack

30

ИГРА 18+

pack

ВАЖНО

!!Акция!!

Alien_RageХит недели

RePack

MK11
pack

Забери бонус

RePack

jed

!!Акция!!

Alien_Rage

RePack

fifa19

RePack

Assassins Creed: Odyssey

RePack

NEED FOR SPEED™ PAYBACK

4 сезон

9 сезон

Бесстыжие 9 сезон

Все сериалы

все сериалы на PB.wtf

RePack

FAR CRY 5
  

Рендель / Rendel (Йессе Хаая) [2017, фэнтези, боевик, криминал, WEB-DL 720p] MVO [GreenРай Studio] pb.wtf

Рендель через торрент pb.wtf

Раздают: 1 [ 0 KB/s ]
Размер: 3.22 GB | Добавлен: 2 года 9 мес. назад | Торрент скачан:338 раз
Скачать  

20-01-2018 17:48 Рендель Скачать торрент  

Рендель / RendelГод выпуска: 2017
Страна: Финляндия
Жанр: фэнтези, боевик, криминал
Продолжительность: 01:46:21
Перевод: Любительский (многоголосый) -
Субтитры: отсутствуют

Режиссер: Йессе Хаая

rating

В ролях:

Бьянка Брэди, Алина Томникова, Шила Шах, Йессе Хаая, Матти Оннисмаа, Теро Салениус, Кристофер Гуммерус, Джонни Виваш

Описание:

Ослепленный невероятной жаждой мести, главный герой, после смерти своей семьи, решает примерить плащ супергероя, чтобы отомстить всем, кто этого заслуживает.

Качество: WEB-DL 720p
Формат: MKV
Видео кодек: H.264
Аудио кодек: AC3

Видео: 4000 Кбит/с, 1280x526
Аудио#1: AC3, 2 ch, 384 Кбит/с

скриншот  скриншот  скриншот  

Общее
Уникальный идентификатор : 185778855547870464550910481510601339627 (0x8BC3B4C288DFEF47B40FD4BDE6CC32EB)
Полное имя : D:\Rendel.2017.P.WEB-DL.720p.GreenРай Studio.mkv
Формат : Matroska
Версия формата : Version 4 / Version 2
Размер файла : 3,22 Гбайт
Продолжительность : 1 ч. 46 м.
Режим общего битрейта : Постоянный
Общий поток : 4332 Кбит/сек
Дата кодирования : UTC 2018-01-20 11:37:51
Программа кодирования : mkvmerge v8.3.0 ('Over the Horizon') 64bit
Библиотека кодирования : libebml v1.3.1 + libmatroska v1.4.2

Видео
Идентификатор : 1
Формат : AVC
Формат/Информация : Advanced Video Codec
Профиль формата : Main@L3.1
Параметр CABAC формата : Да
Параметр ReFrames формата : 3 кадра
Параметр GOP формата : M=4, N=15
Идентификатор кодека : V_MPEG4/ISO/AVC
Продолжительность : 1 ч. 46 м.
Вид битрейта : Постоянный
Битрейт : 4000 Кбит/сек
Ширина : 1280 пикселей
Высота : 536 пикселей
Соотношение сторон : 2,40:1
Режим частоты кадров : Постоянный
Частота кадров : 24,000 кадра/сек
Стандарт вещания : NTSC
Цветовое пространство : YUV
Субдискретизация насыщенности : 4:2:0
Битовая глубина : 8 бит
Тип развёртки : Прогрессивная
Бит/(Пиксели*Кадры) : 0.243
Размер потока : 2,87 Гбайт (89%)
Язык : English
Default : Да
Forced : Нет
Цветовой диапазон : Limited

Аудио
Идентификатор : 2
Формат : AC-3
Формат/Информация : Audio Coding 3
Расширение режима : CM (complete main)
Параметр Endianness формата : Big
Идентификатор кодека : A_AC3
Продолжительность : 1 ч. 46 м.
Вид битрейта : Постоянный
Битрейт : 384 Кбит/сек
Каналы : 2 канала
Расположение каналов : Front: L R
Частота : 48,0 КГц
Частота кадров : 31,250 кадров/сек (1536 spf)
Метод сжатия : С потерями
Размер потока : 292 Мбайт (9%)
Default : Да
Forced : Нет

pb.wtf



Скачать Рендель через торрент http://c.radikal.ru/c35/1801/8f/cb4281af3e72.jpg Скачать фильм Рендель через торрент бесплантно в хорошем качестве Описание: Ослепленный невероятной жаждой мести, главный герой, после смерти своей семьи, решает примерить плащ супергероя, чтобы отомстить ... 7.7 10 12
Торрент: Зарегистрирован [2018-01-20 17:48] · скачан: 338 раз
Статус: T временная
Размер: 3.22 GB
Как cкачать? Как скачать Рендель через торрент | qTorrent

% Раздел Тема Автор DL S | L
T Релизы по Парсеру [Игры, Сериалы и Фильмы и другое...] [ 1.37 GB ] Рендель / Rendel [2017 WEB-DLRip MVO | Синема УС] sanekbest1 Скачать
1 | 0
T Фильмы (мультфильмы) cо спонсором показа (Новинки AVI/MKV) [ 1.37 GB ] Рендель / Rendel [2017 WEB-DLRip] MVO [GreenРай Studio] bober100 Скачать
1 | 0
Фильмы 2001-2005 [ 4.18 GB ] Беовульф и Грендель / Beowulf & Grendel [2005 BDRip] VintMosina Скачать
1 | 0
Фильмы 2006-2008 [ 1.46 GB ] Грендель / Grendel [2007 SATRip] aspace Скачать
1 | 0

28-11-2019 20:33  

Отключить всю рекламу на сайте

20-01-2018 18:37 Рендель Скачать торрент  

Отпишитесь, кто смотрел данный шедевр. Как оно?pb.wtf



20-01-2018 19:08 Рендель Скачать торрент  

bober100, Спасибо! посмотримpb.wtf



20-01-2018 19:58 Рендель Скачать торрент  

ну что ? Крендель смотребителен или трешак в стиле Асилум?pb.wtf



21-01-2018 05:00 Рендель Скачать торрент  

dantesparda писал(а):

ну что ? Крендель смотребителен или трешак в стиле Асилум?

Редкостное Г. Даже с перемоткой смотрится убого. pb.wtf



    Дорогой пользователь! Огромная просьба, поблагодарите релизера, оцените раздачу и оставьте свои комментарий, если Вы скачали Рендель через торрент бесплатно! Внесите свою лепту в развитие PiratBit!
    Комментировать посты могут только пользователи прошедшие не сложную регистрацию
    Показать сообщения:    

    Рендель через торрент
    Скачать бесплатно Рендель
    Рендель скачать торрент
    Рендель смотреть онлайн
    Cкачать фильм Рендель бесплатно
    Рендель скачать торрент в хорошем качестве
    Рендель смотреть онлайн бесплатно в хорошем качестве


    Вы не можете начинать темы
    Вы не можете отвечать на сообщения
    Вы не можете редактировать свои сообщения
    Вы не можете удалять свои сообщения
    Вы не можете голосовать в опросах
    Вы не можете прикреплять файлы к сообщениям
    Вы можете скачивать файлы