Мега распродажа FORZA HORIZON 4 ULTIMATE+ВСЕ DLC+ОНЛАЙН всего за 499р. 349 руб. (супер цена). Внимание количество ограничено!!!

Лицензия

30

iTunes

мы

iTunes

1

1 сезон

Чернобыль

1 сезон

Ральф против интернета

MVO

Покемон. Детектив Пикачу

8 сезон

Игра престолов

iTunes

1+1

ИГРА 18+

pack

ВАЖНО

!!Акция!!

Alien_RageХит недели

RePack

Resident Evil 21
pack

RePack

Metro:Exodus

!!Акция!!

Alien_Rage

RePack

fifa19

RePack

Assassins Creed: Odyssey

RePack

NEED FOR SPEED™ PAYBACK

3 сезон

9 сезон

Бесстыжие 9 сезон

Все сериалы

все сериалы на PB.wtf

RePack

FAR CRY 5
Ребята, катастрофически не хватает 2730р. для оплаты серверов за МАЙ (всвязи с блокировками трафик упал в 3 раза), 1-2р., выручайте.
  

Стеклянный замок / The Glass Castle (Дестин Креттон) [2017, драма, биография, BDRip-AVC] VO [iTunes] pb.wtf

Стеклянный замок через торрент pb.wtf

Размер: 3.57 GB | Добавлен: 1 год 5 мес. назад | Торрент скачан:239 раз
Скачать  

25-01-2018 19:44 Стеклянный замок Скачать торрент  

Стеклянный замок / The Glass Castle
«Home goes wherever we go»
Год выпуска: 2017
Страна: США
Жанр: драма, биография
Продолжительность: 02:06:56
Перевод: Профессиональный (одноголосый закадровый) - [iTunes]
Субтитры: Английские
Режиссер: Дестин Креттон
В ролях:

Бри Ларсон, Вуди Харрельсон, Наоми Уоттс, Элла Андерсон, Чандлер Хэд, Макс Гринфилд, Джош Барклай Карас, Чарли Шотуэлл, Иэн Армитедж, Сара Снук, Сэди Синк, Olivia Kate Rice
Описание:
Девочка растет в неблагополучной семье нонконформистов-кочевников. Ее мать эксцентричная артистка, а отец - алкоголик. Родители пытаются вселить надежду в ее детское воображение, чтобы хоть как-то отвлечь внимание от бедности.
Мировая премьера: 11 августа 2017
rating
Релиз от:
Релиз Группа
Качество: BDRip-AVC
Формат: MKV
Видео кодек: AVC
Аудио кодек: AC3
Видео: AVC, 1024x424 (2.40:1), 3000 kbps, 23,976 fps, 0,288 bpp
Аудио №1: AC3 / 5.1 / 48 kHz / 384 kbps / Русский
Аудио №2: AC3 / 5.1 / 48 kHz / 640 kbps / Английский
Навигация по главам: есть
General
Unique ID : 25019427637433862390145810868257261900 (0x12D2910558CAB13A33D051AC48F5894C)
Complete name : D:\video\Раздачи\The.Glass.Castle.2017.BDRip-AVC by WSM.mkv
Format : Matroska
Format version : Version 4 / Version 2
File size : 3.57 GiB
Duration : 2 h 6 min
Overall bit rate : 4 025 kb/s
Encoded date : UTC 2018-01-25 19:23:01
Writing application : mkvmerge v20.0.0 ('I Am The Sun') 64-bit
Writing library : libebml v1.3.5 + libmatroska v1.4.8

Video
ID : 1
Format : AVC
Format/Info : Advanced Video Codec
Format profile : High@L4.1
Format settings, CABAC : Yes
Format settings, ReFrames : 9 frames
Codec ID : V_MPEG4/ISO/AVC
Duration : 2 h 6 min
Bit rate : 3 000 kb/s
Width : 1 024 pixels
Height : 424 pixels
Display aspect ratio : 2.40:1
Frame rate mode : Constant
Frame rate : 23.976 (24000/1001) FPS
Color space : YUV
Chroma subsampling : 4:2:0
Bit depth : 8 bits
Scan type : Progressive
Bits/(Pixel*Frame) : 0.288
Stream size : 2.66 GiB (75%)
Writing library : x264 core 152 r2851 ba24899
Encoding settings : cabac=1 / ref=10 / deblock=1:-3:-3 / analyse=0x3:0x133 / me=umh / subme=10 / psy=0 / mixed_ref=1 / me_range=16 / chroma_me=1 / trellis=2 / 8x8dct=1 / cqm=0 / deadzone=21,11 / fast_pskip=0 / chroma_qp_offset=0 / threads=6 / lookahead_threads=1 / sliced_threads=0 / nr=0 / decimate=0 / interlaced=0 / bluray_compat=0 / constrained_intra=0 / bframes=5 / b_pyramid=1 / b_adapt=2 / b_bias=0 / direct=3 / weightb=1 / open_gop=0 / weightp=2 / keyint=240 / keyint_min=23 / scenecut=40 / intra_refresh=0 / rc=2pass / mbtree=0 / bitrate=3000 / ratetol=1.0 / qcomp=0.60 / qpmin=10 / qpmax=51 / qpstep=4 / cplxblur=20.0 / qblur=0.5 / ip_ratio=1.40 / pb_ratio=1.30 / aq=1:1.00
Default : Yes
Forced : No

Audio #1
ID : 2
Format : AC-3
Format/Info : Audio Coding 3
Mode extension : CM (complete main)
Format settings, Endianness : Big
Codec ID : A_AC3
Duration : 2 h 6 min
Bit rate mode : Constant
Bit rate : 384 kb/s
Channel(s) : 6 channels
Channel positions : Front: L C R, Side: L R, LFE
Sampling rate : 48.0 kHz
Frame rate : 31.250 FPS (1536 spf)
Compression mode : Lossy
Stream size : 349 MiB (10%)
Language : Russian
Default : Yes
Forced : No

Audio #2
ID : 3
Format : AC-3
Format/Info : Audio Coding 3
Mode extension : CM (complete main)
Format settings, Endianness : Big
Codec ID : A_AC3
Duration : 2 h 6 min
Bit rate mode : Constant
Bit rate : 640 kb/s
Channel(s) : 6 channels
Channel positions : Front: L C R, Side: L R, LFE
Sampling rate : 48.0 kHz
Frame rate : 31.250 FPS (1536 spf)
Compression mode : Lossy
Stream size : 581 MiB (16%)
Language : English
Default : No
Forced : No

Text
ID : 4
Format : UTF-8
Codec ID : S_TEXT/UTF8
Codec ID/Info : UTF-8 Plain Text
Duration : 2 h 1 min
Bit rate : 61 b/s
Count of elements : 1640
Stream size : 55.1 KiB (0%)
Language : English
Default : No
Forced : No

Menu
00:00:00.000 : :00:00:00.000
00:08:15.453 : :00:08:15.453
00:15:33.182 : :00:15:33.182
00:21:33.292 : :00:21:33.292
00:29:25.931 : :00:29:25.931
00:37:11.187 : :00:37:11.187
00:43:54.840 : :00:43:54.840
00:51:53.485 : :00:51:53.485
01:00:29.334 : :01:00:29.334
01:07:59.659 : :01:07:59.659
01:14:05.816 : :01:14:05.816
01:24:52.504 : :01:24:52.504
01:29:27.696 : :01:29:27.696
01:37:47.236 : :01:37:47.236
01:45:53.263 : :01:45:53.263
01:55:49.484 : :01:55:49.484
pb.wtf



Скачать Стеклянный замок через торрент http://lostpix.com/img/2018-01/26/n7nkx3bivp1o9sc7s70r5ijzi.png Скачать фильм Стеклянный замок через торрент бесплантно в хорошем качестве Описание: Девочка растет в неблагополучной семье нонконформистов-кочевников. Ее мать эксцентричная артистка, а отец - алкоголик. Родители ... 8 10 4
Торрент: Зарегистрирован [2018-01-25 19:44] · скачан: 239 раз
Статус: T временная
Размер: 3.57 GB
Как cкачать? Как скачать Стеклянный замок через торрент | qTorrent

% Раздел Тема Автор DL S | L
Фильмы [HD 720p, 1080p] (Хороший звук DUB, MVO) [ 13.08 GB ] Стеклянный замок / The Glass Castle [2017 биография BDRip 1080p by msltel] 2 x MVO VO msltel Скачать
1 | 0
Фильмы [HD 720p, 1080p] (Хороший звук DUB, MVO) [ 5.46 GB ] Стеклянный замок / The Glass Castle [2017 биография BDRip 720p by msltel] 2 x MVO VO msltel Скачать
2 | 0
Фильмы 2017 (Звук TS, Cam, VO, DVO) [ 2.05 GB ] Стеклянный замок / The Glass Castle [2017 биография HDRip] VO bober100 Скачать
1 | 0
Фильмы 2017 (Звук TS, Cam, VO, DVO) [ 1.37 GB ] Стеклянный замок / The Glass Castle [2017 биография HDRip] VO bober100 Скачать
1 | 0


Последний раз редактировалось: WorldSM (2018-01-26 00:14), всего редактировалось 2 раз(а)


>> Регистрируемся здесь <<






Отзывы и комментарии о схеме читаем и пишем здесь: ---> Отзывы и комментарии о схеме

Новые благодарочки в телеграм довольных пользователей:
скриншот   скриншот   скриншот   скриншот   скриншот

25-01-2018 20:10 Стеклянный замок Скачать торрент  

WorldSM, Исправьте на Перевод Профессиональный (одноголосый закадровый), сабы англ. есть добавьтеpb.wtf





Последний раз редактировалось: bober100 (2018-01-25 20:15), всего редактировалось 1 раз

25-01-2018 20:11 Стеклянный замок Скачать торрент  

Аудио №2: AC3 / 5.1 / 48 kHz / 640 kbps / facepalmpb.wtf



25-01-2018 20:19 Стеклянный замок Скачать торрент  

WorldSM, а можно лог посмотреть?pb.wtf



25-01-2018 20:40 Стеклянный замок Скачать торрент  

По книге "ЗАМОК ИЗ СТЕКЛА"?pb.wtf



25-01-2018 22:20 Стеклянный замок Скачать торрент  

schultz писал(а):

Аудио №2: AC3 / 5.1 / 48 kHz / 640 kbps / facepalm

я понял опять косяк, но звук накладываю от оригинала, по мне когда звук хороший это лучше! По себе знаю когда скачиваешь рип гига на 3 и звук там почти 7.1 очень приятно. Не долга кочал и так скоро посмотрел)pb.wtf





Последний раз редактировалось: WorldSM (2018-01-25 22:27), всего редактировалось 1 раз

25-01-2018 22:20 Стеклянный замок Скачать торрент  

bober100 писал(а):

WorldSM, Исправьте на Перевод Профессиональный (одноголосый закадровый), сабы англ. есть добавьте

окpb.wtf



25-01-2018 22:29 Стеклянный замок Скачать торрент  

schultz писал(а):

WorldSM, а можно лог посмотреть?

нет лога((pb.wtf



25-01-2018 23:26 Стеклянный замок Скачать торрент  

bober100 писал(а):

WorldSM, Исправьте на Перевод Профессиональный (одноголосый закадровый), сабы англ. есть добавьте

исправилpb.wtf



26-01-2018 04:03 Стеклянный замок Скачать торрент  

WorldSM, Где указаны субтитры в вашей теме, в заголовке исправьте MVO на VOpb.wtf



26-01-2018 04:35 Стеклянный замок Скачать торрент  

Топик был перенесен из форума Фильмы 2017 [DVDrip, WEB-DLRip, HDrip] (DUB, MVO) в форум Фильмы 2017 (Звук TS, Cam, VO, DVO)


bober100pb.wtf



    Дорогой пользователь! Огромная просьба, поблагодарите релизера, оцените раздачу и оставьте свои комментарий, если Вы скачали Стеклянный замок через торрент бесплатно! Внесите свою лепту в развитие PiratBit!
    Комментировать посты могут только пользователи прошедшие не сложную регистрацию
    Показать сообщения:    

    Стеклянный замок через торрент
    Скачать бесплатно Стеклянный замок
    Стеклянный замок скачать торрент
    Стеклянный замок смотреть онлайн
    Cкачать фильм Стеклянный замок бесплатно
    Стеклянный замок скачать торрент в хорошем качестве
    Стеклянный замок смотреть онлайн бесплатно в хорошем качестве


    Вы не можете начинать темы
    Вы не можете отвечать на сообщения
    Вы не можете редактировать свои сообщения
    Вы не можете удалять свои сообщения
    Вы не можете голосовать в опросах
    Вы не можете прикреплять файлы к сообщениям
    Вы можете скачивать файлы