Всегда рабочее зеркало без VPN и Proxy просто перед .vidak.icu напиши любое слово или цифру, Пример http://64d7.vidak.icu

iTunes

2 сезон

1 сезон

1

1 сезон

iTunes

2 сезон

13

1 сезон

Deluxe

pack

Рекомендуем

Пиратка

30

ВАЖНО

RePack

MK11

RePack

jed

RePack

fifa19

RePack

RDR2

RePack

NEED FOR SPEED™ PAYBACK

Кинопоиск HD

6 сезон

 Острые козырьки 6 сезон

Все сериалы

все сериалы на PB.wtf

RePack

FAR CRY 5

Anonymous, нам критически не хватает 5601 руб. на оплату серверов и переферии за Апрель, помоги нам пожалуйста, вся надежда только на тебя. В благодарность мы отключим тебе всю рекламу на сайте!

×
  
Magnet ссылка

Kingsman: Золотое кольцо / Kingsman: The Golden Circle (Мэттью Вон) [2017, боевик, комедия, приключения, BDRip-AVC] AVO [Сербин], Ukr - ExKinoRay pb.wtf

Kingsman: Золотое кольцо через торрент pb.wtf

Размер: 2.99 GB | Добавлен: 4 года 3 мес. назад | Торрент скачан:76 раз
Смотреть онлайн Kingsman: Золотое кольцо | Скачать    Ребята, помогите собрать деньги на оплату серверов!!!

28-01-2018 22:10 Kingsman: Золотое кольцо Скачать торрент  

Информация о фильме
Название: Kingsman: Золотое кольцо
Оригинальное название: Kingsman: The Golden Circle
Год выпуска: 2017
Жанр: Боевик, комедия, приключения
Страна: Великобритания, США
Студия: 20th Century Fox Film Corporation, Marv Films, Shangri-La Entertainment, TSG Entertainment
Продолжительность: 02:21:02
Перевод: Авторский одноголосый, Ю.Сербин
Режиссер: Мэттью Вон
В ролях: Колин Фёрт, Тэрон Эджертон, Эдвард Холкрофт, Гордон Александр, Марк Стронг, Ханна Альстрём, Кэлвин Демба, Томас Тургус, Тоби Бакаре, Джулианна Мур

Описание:
Когда штаб-квартиры секретной службы Kingsman уничтожены, и весь мир оказался в заложниках у неизвестных, британские суперагенты обнаруживают, что в один день вместе с их организацией была еще создана американская разведка — Statesman. Теперь эти две элитные спецслужбы должны объединиться и бросить вызов общему безжалостному врагу, чтобы спасти мир, то есть заняться тем, что для Эггси становится обычным делом…

rating

Файл
Контейнер: MKV
Качество: BDRip-AVC
Видео: AVC, 1024x428 (2.40:1), 23.976 fps, 2133 Kbps, 0.203 bit/pixel
Аудио 1: AC-3, 48.0 KHz, 5.1 ch, 448 Kbps, CBR (Russian)
Аудио 2: AC-3, 48.0 KHz, 5.1 ch, 448 Kbps, CBR (UKR)
Субтитры: Русские (форсированные, полные), английские
General
Unique ID : 237522558282439254835665407406146089444 (0xB2B12E4564BE51DEB0BD7E32AF2C71E4)
Complete name : D:\Kingsman.The.Golden.Circle.2017.AVO.BDRip.AVC.ExKinoRay.mkv
Format : Matroska
Format version : Version 2
File size : 2.99 GiB
Duration : 2 h 21 min
Overall bit rate : 3 030 kb/s
Movie name : Kingsman The Golden Circle 2017 from ExKinoRay
Encoded date : UTC 2018-01-25 17:57:08
Writing application : mkvmerge v5.6.0 ('Kenya Kane') built on May 27 2012 16:44:04
Writing library : libebml v1.2.3 + libmatroska v1.3.0

Video
ID : 1
Format : AVC
Format/Info : Advanced Video Codec
Format profile : High@L4.1
Format settings, CABAC : Yes
Format settings, ReFrames : 11 frames
Codec ID : V_MPEG4/ISO/AVC
Duration : 2 h 21 min
Bit rate : 2 133 kb/s
Width : 1 024 pixels
Height : 428 pixels
Display aspect ratio : 2.40:1
Frame rate mode : Constant
Frame rate : 23.976 (23976/1000) FPS
Color space : YUV
Chroma subsampling : 4:2:0
Bit depth : 8 bits
Scan type : Progressive
Bits/(Pixel*Frame) : 0.203
Stream size : 2.04 GiB (68%)
Title : Enigma
Writing library : x264 core 152 r2851 ba24899
Encoding settings : cabac=1 / ref=11 / deblock=1:-2:-3 / analyse=0x3:0x113 / me=umh / subme=11 / psy=1 / psy_rd=1.00:0.05 / mixed_ref=1 / me_range=32 / chroma_me=1 / trellis=2 / 8x8dct=1 / cqm=0 / deadzone=21,11 / fast_pskip=0 / chroma_qp_offset=-3 / threads=12 / lookahead_threads=3 / sliced_threads=0 / nr=0 / decimate=0 / interlaced=0 / bluray_compat=0 / constrained_intra=0 / bframes=10 / b_pyramid=2 / b_adapt=2 / b_bias=0 / direct=3 / weightb=1 / open_gop=0 / weightp=2 / keyint=240 / keyint_min=23 / scenecut=40 / intra_refresh=0 / rc_lookahead=40 / rc=2pass / mbtree=0 / bitrate=2133 / ratetol=1.0 / qcomp=0.65 / qpmin=0 / qpmax=51 / qpstep=4 / cplxblur=20.0 / qblur=0.5 / vbv_maxrate=50000 / vbv_bufsize=62500 / nal_hrd=none / filler=0 / ip_ratio=1.40 / pb_ratio=1.30 / aq=3:0.90
Language : English
Default : Yes
Forced : No
Color range : Limited
Color primaries : BT.709
Transfer characteristics : BT.709
Matrix coefficients : BT.709

Audio #1
ID : 2
Format : AC-3
Format/Info : Audio Coding 3
Mode extension : CM (complete main)
Format settings, Endianness : Big
Codec ID : A_AC3
Duration : 2 h 21 min
Bit rate mode : Constant
Bit rate : 448 kb/s
Channel(s) : 6 channels
Channel positions : Front: L C R, Side: L R, LFE
Sampling rate : 48.0 kHz
Frame rate : 31.250 FPS (1536 spf)
Compression mode : Lossy
Stream size : 452 MiB (15%)
Title : AVO (Serbin)
Language : Russian
Default : Yes
Forced : No

Audio #2
ID : 3
Format : AC-3
Format/Info : Audio Coding 3
Mode extension : CM (complete main)
Format settings, Endianness : Big
Codec ID : A_AC3
Duration : 2 h 21 min
Bit rate mode : Constant
Bit rate : 448 kb/s
Channel(s) : 6 channels
Channel positions : Front: L C R, Side: L R, LFE
Sampling rate : 48.0 kHz
Frame rate : 31.250 FPS (1536 spf)
Compression mode : Lossy
Stream size : 452 MiB (15%)
Title : Dub
Language : Ukrainian
Default : No
Forced : No

Text #1
ID : 4
Format : UTF-8
Codec ID : S_TEXT/UTF8
Codec ID/Info : UTF-8 Plain Text
Title : Forced
Language : Russian
Default : Yes
Forced : No

Text #2
ID : 5
Format : UTF-8
Codec ID : S_TEXT/UTF8
Codec ID/Info : UTF-8 Plain Text
Language : Russian
Default : No
Forced : No

Text #3
ID : 6
Format : UTF-8
Codec ID : S_TEXT/UTF8
Codec ID/Info : UTF-8 Plain Text
Title : Full
Language : English
Default : No
Forced : No

Text #4
ID : 7
Format : UTF-8
Codec ID : S_TEXT/UTF8
Codec ID/Info : UTF-8 Plain Text
Title : SDH
Language : English
Default : No
Forced : No

Menu
00:00:00.000 : en:Chapter 01
00:04:51.958 : en:Chapter 02
00:09:39.453 : en:Chapter 03
00:13:36.607 : en:Chapter 04
00:18:54.299 : en:Chapter 05
00:24:57.287 : en:Chapter 06
00:28:43.346 : en:Chapter 07
00:32:52.303 : en:Chapter 08
00:39:18.731 : en:Chapter 09
00:43:21.849 : en:Chapter 10
00:48:26.570 : en:Chapter 11
00:53:54.105 : en:Chapter 12
00:58:31.257 : en:Chapter 13
01:05:04.901 : en:Chapter 14
01:09:52.521 : en:Chapter 15
01:13:34.743 : en:Chapter 16
01:19:41.860 : en:Chapter 17
01:23:45.103 : en:Chapter 18
01:28:55.288 : en:Chapter 19
01:33:25.224 : en:Chapter 20
01:40:14.758 : en:Chapter 21
01:45:03.255 : en:Chapter 22
01:49:38.488 : en:Chapter 23
01:55:15.992 : en:Chapter 24
02:01:40.835 : en:Chapter 25
02:05:44.036 : en:Chapter 26
02:12:36.406 : en:Chapter 27
02:15:15.273 : en:Chapter 28
Релиз от:

Автор релиза: pb.wtf



Скачать Kingsman: Золотое кольцо через торрент http://i103.fastpic.ru/big/2017/1228/cd/12f1dec76eaee0030616b54a38007fcd.jpg Скачать, смотреть онлайн Kingsman: Золотое кольцо бесплантно в хорошем качестве Описание: Когда штаб-квартиры секретной службы Kingsman уничтожены, и весь мир оказался в заложниках у неизвестных, британские суперагенты ... 10 10 2
Info! Золотая раздача, скачанное не засчитывается.
Торрент: Зарегистрирован [2018-01-28 22:10] · скачан: 76 раз
Статус: √ проверено
Размер: 2.99 GB
Как cкачать? Как скачать Kingsman: Золотое кольцо через торрент | UTorrent

28-11-2019 20:33  

Отключить всю рекламу на сайте

    Дорогой пользователь! Огромная просьба, поблагодарите релизера, оцените раздачу и оставьте свои комментарий, если Вы скачали Kingsman: Золотое кольцо через торрент бесплатно!
    Комментировать посты могут только пользователи прошедшие не сложную регистрацию
    Показать сообщения:    

    Kingsman: Золотое кольцо через торрент
    Скачать бесплатно Kingsman: Золотое кольцо
    Kingsman: Золотое кольцо скачать торрент
    Kingsman: Золотое кольцо смотреть онлайн
    Cкачать фильм Kingsman: Золотое кольцо бесплатно
    Kingsman: Золотое кольцо скачать торрент в хорошем качестве
    Kingsman: Золотое кольцо смотреть онлайн бесплатно в хорошем качестве


    Вы не можете начинать темы
    Вы не можете отвечать на сообщения
    Вы не можете редактировать свои сообщения
    Вы не можете удалять свои сообщения
    Вы не можете голосовать в опросах
    Вы не можете прикреплять файлы к сообщениям
    Вы можете скачивать файлы