Ссылка на приватное зеркало нашего сайта всего за 1$. Внимание количество ограничено!!!

2 сезон

iTunes

1 сезон

1

2 сезон

2 сезон

iTunes

1 сезон

RePack

30

Ultimate

ВАЖНО

ИГРА 18+

pack

RePack

MK11
pack

Забери бонус

RePack

jed

!!Акция!!

Alien_Rage

RePack

fifa19

RePack

Assassins Creed: Odyssey

RePack

NEED FOR SPEED™ PAYBACK

4 сезон

9 сезон

Бесстыжие 9 сезон

Все сериалы

все сериалы на PB.wtf

RePack

FAR CRY 5
  

В ночной тиши / Still of the Night (Роберт Бентон) [1982, драма, криминал, детектив, BDRip 1080p by msltel] MVO pb.wtf

В ночной тиши через торрент pb.wtf

Размер: 11.04 GB | Добавлен: 2 года 10 мес. назад | Торрент скачан:8 раз
Скачать  

30-01-2018 07:45 В ночной тиши Скачать торрент  

Название: В ночной тиши
Оригинальное название: Still of the Night
Год выпуска: 1982
Страна: США
Жанр: драма, криминал, детектив
Продолжительность: 01:30:54
Перевод: профессиональный многоголосый

Режиссер: Роберт Бентон
В ролях: Рой Шайдер, Мэрил Стрип, Джессика Тэнди, Джо Грифази, Сара Ботсфорд, Йозеф Зоммер, Фредерикке Борге, Ирвинг Мецман, Ларри Джошуа, Том Нортон

О фильме: Один из пациентов известного психиатра Сэма Райса убит. Врач знакомится с любовницей жертвы и увлекается таинственной блондинкой по имени Брук несмотря на то, что помнит слова убитого, что тот знал женщину, которая убила человека, и его беспокоит, не убъёт ли она вновь…



Качество: BDRip 1080p
Формат: MKV
Видео: MPEG-4 AVC, 15.7 Mбит/с, 1920x1040, 23.976 кадр/с
Аудио 1: русский, AC3, 192 kbps, 6 ch [закадровый многоголосый, Спб, 5 канал]
Аудио 2: английский, DTS, 1509 kbps, 2 ch, 48 kHz [оригинал]
Субтитры 2: английские
Неименованные главы/чаптеры.
Общее
Уникальный идентификатор : 185963090902880189672600670153135445783 (0x8BE73043A332CDBAB1BA39FA83715717)
Полное имя : D:\Video\В ночной тиши.1982.BDRip.1080p by msltel.mkv
Формат : Matroska
Версия формата : Version 4 / Version 2
Размер файла : 11,0 Гбайт
Продолжительность : 1 ч. 30 м.
Общий поток : 17,4 Мбит/сек
Название фильма : Rip by msltel
Дата кодирования : UTC 2018-01-30 03:08:44
Программа кодирования : mkvmerge v8.2.0 ('World of Adventure') 64bit
Библиотека кодирования : libebml v1.3.1 + libmatroska v1.4.2

Видео
Идентификатор : 1
Формат : AVC
Формат/Информация : Advanced Video Codec
Профиль формата : High@L4.1
Настройки формата : CABAC / 4 Ref Frames
Параметр CABAC формата : Да
Параметр RefFrames формата : 4 кадра
Идентификатор кодека : V_MPEG4/ISO/AVC
Продолжительность : 1 ч. 30 м.
Битрейт : 15,7 Мбит/сек
Ширина : 1920 пикселей
Высота : 1040 пикселей
Соотношение сторон : 1,85:1
Режим частоты кадров : Постоянный
Частота кадров : 23,976 (24000/1001) кадра/сек
Цветовое пространство : YUV
Субдискретизация насыщенности : 4:2:0
Битовая глубина : 8 бит
Тип развёртки : Прогрессивная
Бит/(Пиксели*Кадры) : 0.328
Размер потока : 9,96 Гбайт (90%)
Библиотека кодирования : x264 core 146 r2538 121396c
Настройки программы : cabac=1 / ref=4 / deblock=1:-3:-2 / analyse=0x3:0x113 / me=umh / subme=11 / psy=1 / psy_rd=1.00:0.15 / mixed_ref=1 / me_range=32 / chroma_me=1 / trellis=2 / 8x8dct=1 / cqm=0 / deadzone=21,11 / fast_pskip=0 / chroma_qp_offset=-3 / threads=6 / lookahead_threads=1 / sliced_threads=0 / nr=0 / decimate=1 / interlaced=0 / bluray_compat=0 / constrained_intra=0 / bframes=14 / b_pyramid=2 / b_adapt=2 / b_bias=0 / direct=1 / weightb=1 / open_gop=0 / weightp=2 / keyint=230 / keyint_min=23 / scenecut=40 / intra_refresh=0 / rc_lookahead=40 / rc=crf / mbtree=0 / crf=20.7 / qcomp=0.60 / qpmin=0 / qpmax=69 / qpstep=4 / vbv_maxrate=62500 / vbv_bufsize=78125 / crf_max=0.0 / nal_hrd=none / filler=0 / ip_ratio=1.40 / pb_ratio=1.30 / aq=1:1.00
Язык : English
Default : Да
Forced : Нет

Аудио #1
Идентификатор : 2
Формат : AC-3
Формат/Информация : Audio Coding 3
Идентификатор кодека : A_AC3
Продолжительность : 1 ч. 30 м.
Вид битрейта : Постоянный
Битрейт : 192 Кбит/сек
Каналы : 2 канала
Расположение каналов : Front: L R
Частота : 48,0 КГц
Частота кадров : 31,250 кадров/сек (1536 SPF)
Битовая глубина : 16 бит
Метод сжатия : С потерями
Размер потока : 125 Мбайт (1%)
Заголовок : MVO.Спб, 5 канал
Язык : Russian
ServiceKind/String : Complete Main
Default : Да
Forced : Нет

Аудио #2
Идентификатор : 3
Формат : DTS
Формат/Информация : Digital Theater Systems
Идентификатор кодека : A_DTS
Продолжительность : 1 ч. 30 м.
Вид битрейта : Постоянный
Битрейт : 1509 Кбит/сек
Каналы : 2 канала
Расположение каналов : Front: L R
Частота : 48,0 КГц
Частота кадров : 93,750 кадра/сек (512 SPF)
Битовая глубина : 16 бит
Метод сжатия : С потерями
Размер потока : 981 Мбайт (9%)
Заголовок : original
Язык : English
Default : Нет
Forced : Нет

Текст
Идентификатор : 4
Формат : UTF-8
Идентификатор кодека : S_TEXT/UTF8
Идентификатор кодека/Информация : UTF-8 Plain Text
Продолжительность : 1 ч. 24 м.
Битрейт : 55 бит/сек
ElementCount : 1005
Размер потока : 34,0 Кбайт (0%)
Заголовок : английские
Язык : English
Default : Нет
Forced : Нет

Меню
00:00:00.000 : :Chapter 01
00:09:55.469 : :Chapter 02
00:21:46.930 : :Chapter 03
00:30:07.972 : :Chapter 04
00:37:30.289 : :Chapter 05
00:50:44.332 : :Chapter 06
01:02:08.891 : :Chapter 07
01:10:52.539 : :Chapter 08
pb.wtf



Скачать В ночной тиши через торрент https://d.radikal.ru/d09/1801/a9/545d4b6349c2.jpg Скачать фильм В ночной тиши через торрент бесплантно в хорошем качестве О фильме: Один из пациентов известного психиатра Сэма Райса убит. Врач знакомится с любовницей жертвы и увлекается таинственной блондинкой ... 10 10 1
Info! Золотая раздача, скачанное не засчитывается.
Торрент: Зарегистрирован [2018-01-30 07:45] · скачан: 8 раз
Статус: √ проверено
Размер: 11.04 GB
Как cкачать? Как скачать В ночной тиши через торрент | qTorrent

% Раздел Тема Автор DL S | L
Фильмы [HD 720p, 1080p] (Хороший звук DUB, MVO) [ 4.33 GB ] В ночной тиши / Still of the Night [1982 BDRip 720p by msltel] MVO msltel Скачать
1 | 0
Фильмы до 2000 г. [ 1.45 GB ] В ночной тиши / Still of the Night [1982 BDRip] MVO koenig Скачать
1 | 0

28-11-2019 20:33  

Отключить всю рекламу на сайте

    Дорогой пользователь! Огромная просьба, поблагодарите релизера, оцените раздачу и оставьте свои комментарий, если Вы скачали В ночной тиши через торрент бесплатно! Внесите свою лепту в развитие PiratBit!
    Комментировать посты могут только пользователи прошедшие не сложную регистрацию
    Показать сообщения:    

    В ночной тиши через торрент
    Скачать бесплатно В ночной тиши
    В ночной тиши скачать торрент
    В ночной тиши смотреть онлайн
    Cкачать фильм В ночной тиши бесплатно
    В ночной тиши скачать торрент в хорошем качестве
    В ночной тиши смотреть онлайн бесплатно в хорошем качестве


    Вы не можете начинать темы
    Вы не можете отвечать на сообщения
    Вы не можете редактировать свои сообщения
    Вы не можете удалять свои сообщения
    Вы не можете голосовать в опросах
    Вы не можете прикреплять файлы к сообщениям
    Вы можете скачивать файлы