новый адрес
Ссылка на приватное зеркало всего за 1$. Внимание количество ограничено!!!

iTunes

1+1

iTunes

мы

WEB-DL

1

iTunes

Чернобыль

iTunes

Ральф против интернета

Лицензия

ПШазам

Лицензия

Оно 2

Лицензия

30
pack

Вам бонус

ВАЖНО

!!Акция!!

Alien_RageХит недели

RePack

Resident Evil 21

ИГРА 18+

pack

RePack

jed

!!Акция!!

Alien_Rage

RePack

fifa19

RePack

Assassins Creed: Odyssey

RePack

NEED FOR SPEED™ PAYBACK

3 сезон

9 сезон

Бесстыжие 9 сезон

Все сериалы

все сериалы на PB.wtf

RePack

FAR CRY 5
Ребята, катастрофически не хватает 1900р. для оплаты серверов за Октябрь (всвязи с блокировками трафик упал в 3 раза), 1-2р., выручайте.
  

Первый день мира (Яков Сегель) [1959, СССР, военный, драма, SATRip от AVP Studio] Original (rus) + Ger pb.wtf

Первый день мира через торрент pb.wtf

Размер: 1.46 GB | Добавлен: 1 год 10 мес. назад | Торрент скачан:13 раз
Скачать  

10-02-2018 07:49 Первый день мира Скачать торрент  

Первый день мира
Страна: СССР
Производство: киностудия им. М. Горького

Жанр: военный, драма
Год выпуска: 1959
Продолжительность: 01:31:46

Перевод: Не требуется
Cубтитры: нет
Оригинальная аудиодорожка: русский

Режиссер: Яков Сегель

В ролях:
Валериан Виноградов, Людмила Бутенина, Аркадий Вовси, Гарри Дунц, Люсьена Овчинникова, Пётр Щербаков, Игорь Пушкарёв, Андрей Файт, Нина Меньшикова, Вадим Захарченко, Эрвин Кнаусмюллер, Хайнц Браун, Юрий Фомичёв, Алексей Темерин...
Об актёрах подробней

Описание:
Фильм снят Яковом Сегелем, который до войны был героем всех мальчишек - юнгой из «Детей капитана Гранта», а потом стал героем по-настоящему, пройдя всю войну солдатом.
Картина о советском солдате Михаиле Платонове, погибшем в небольшом немецком городке в первые мирные дни 1945 года. Ожидание любви и мирной жизни объединяет всех, прошедших жестокую войну. Но адская машина ненависти не может остановиться сразу – и Михаил умирает накануне рассвета мира. Несбывшаяся любовь, несбывшиеся мечты...

Исходник: DVB
Качество видео: SATRip
Формат видео: AVI

Видео: 704х528 (4:3), 25 fps, XviD ~ 1882 kbps avg, 0.203 bit/pixel
Аудио: 48 kHz, Dolby Digital AC3 2.0, 192 kbps Русский
Аудио: 48 kHz, Dolby Digital AC3 2.0, 192 kbps Немецкий

Раздача от:
Общее
Полное имя : Pervyy.den.mira.1959.SATRip_[New-team]_by_AVP_Studio.avi
Формат : AVI
Формат/Информация : Audio Video Interleave
Размер файла : 1,46 Гбайт
Продолжительность : 1 ч. 31 м.
Общий поток : 2284 Кбит/сек

Видео
Идентификатор : 0
Формат : MPEG-4 Visual
Профиль формата : Advanced Simple@L5
Настройки формата : BVOP1 / Custom Matrix
Параметр BVOP формата : 1
Параметр QPel формата : Нет
Параметр GMC формата : Без точки перехода
Параметр матрицы формата : Выборочная
Идентификатор кодека : XVID
Идентификатор кодека/Подсказка : XviD
Продолжительность : 1 ч. 31 м.
Битрейт : 1882 Кбит/сек
Ширина : 704 пикселя
Высота : 528 пикселей
Соотношение сторон : 4:3
Частота кадров : 25,000 кадров/сек
Цветовое пространство : YUV
Субдискретизация насыщенности : 4:2:0
Битовая глубина : 8 бит
Тип развёртки : Прогрессивная
Метод сжатия : С потерями
Бит/(Пиксели*Кадры) : 0.203
Размер потока : 1,21 Гбайт (82%)
Библиотека кодирования : XviD 73

Аудио #1
Идентификатор : 1
Формат : AC-3
Формат/Информация : Audio Coding 3
Идентификатор кодека : 2000
Продолжительность : 1 ч. 31 м.
Вид битрейта : Постоянный
Битрейт : 192 Кбит/сек
Каналы : 2 канала
Расположение каналов : Front: L R
Частота : 48,0 КГц
Частота кадров : 31,250 кадров/сек (1536 SPF)
Битовая глубина : 16 бит
Метод сжатия : С потерями
Размер потока : 126 Мбайт (8%)
Выравнивание : Соединение по промежуткам
Продолжительность промежутка : 32 мс. (0,80 видеокадр)

Аудио #2
Идентификатор : 2
Формат : AC-3
Формат/Информация : Audio Coding 3
Идентификатор кодека : 2000
Продолжительность : 1 ч. 31 м.
Вид битрейта : Постоянный
Битрейт : 192 Кбит/сек
Каналы : 2 канала
Расположение каналов : Front: L R
Частота : 48,0 КГц
Частота кадров : 31,250 кадров/сек (1536 SPF)
Битовая глубина : 16 бит
Метод сжатия : С потерями
Размер потока : 126 Мбайт (8%)
Выравнивание : Соединение по промежуткам
Продолжительность промежутка : 32 мс. (0,80 видеокадр)
pb.wtf



Скачать Первый день мира через торрент http://i100.fastpic.ru/big/2018/0208/d3/38ff1a7e1946cc77c43b1eb206e99cd3.png Скачать фильм Первый день мира через торрент бесплантно в хорошем качестве Описание:Фильм снят Яковом Сегелем, который до войны был героем всех мальчишек - юнгой из «Детей капитана Гранта», а потом стал героем ... 10 10 1
Info! Золотая раздача, скачанное не засчитывается.
Торрент: Зарегистрирован [2018-02-10 07:49] · скачан: 13 раз
Статус: √ проверено
Размер: 1.46 GB
Как cкачать? Как скачать Первый день мира через торрент | qTorrent

% Раздел Тема Автор DL S | L
Кино СССР [ 1.46 GB ] Первый день мира [1959 СССР военный SATRip-AVC от AVP Studio] Original + Ger AVP Studio Скачать
1 | 0

28-11-2019 20:33  

Отключить всю рекламу на сайте

    Дорогой пользователь! Огромная просьба, поблагодарите релизера, оцените раздачу и оставьте свои комментарий, если Вы скачали Первый день мира через торрент бесплатно! Внесите свою лепту в развитие PiratBit!
    Комментировать посты могут только пользователи прошедшие не сложную регистрацию
    Показать сообщения:    

    Первый день мира через торрент
    Скачать бесплатно Первый день мира
    Первый день мира скачать торрент
    Первый день мира смотреть онлайн
    Cкачать фильм Первый день мира бесплатно
    Первый день мира скачать торрент в хорошем качестве
    Первый день мира смотреть онлайн бесплатно в хорошем качестве


    Вы не можете начинать темы
    Вы не можете отвечать на сообщения
    Вы не можете редактировать свои сообщения
    Вы не можете удалять свои сообщения
    Вы не можете голосовать в опросах
    Вы не можете прикреплять файлы к сообщениям
    Вы можете скачивать файлы