Всегда рабочее зеркало без VPN и Proxy просто перед .vidak.icu напиши любое слово или цифру, Пример http://qz9s.vidak.icu

MVO

Лицензия

1 сезон

1

1 сезон

iTunes

1 сезон

13

1 сезон

Deluxe

pack

Рекомендуем

Пиратка

30

ВАЖНО

RePack

MK11

RePack

jed

RePack

fifa19

RePack

RDR2

RePack

NEED FOR SPEED™ PAYBACK

Кинопоиск HD

6 сезон

 Острые козырьки 6 сезон

Все сериалы

все сериалы на PB.wtf

RePack

FAR CRY 5
  
Magnet ссылка

Врата дракона в 3Д / Flying Swords of Dragon Gate 3D (Цуй Харк / Tsui Hark) [2011, боевик, приключения, BDrip, 1080p] OverUnder / Вертикальная стереопара pb.wtf

Врата дракона в 3Д через торрент pb.wtf

Размер: 16.71 GB | Добавлен: 4 года 4 мес. назад | Торрент скачан:22 раза
Смотреть онлайн Врата дракона в 3Д | Скачать    Ребята, помогите собрать деньги на оплату серверов!!!

16-02-2018 11:43 Врата дракона в 3Д Скачать торрент  

Врата дракона / Flying Swords of Dragon Gate

Год выпуска: 2011
Страна: Китай(Beijing Liangzi Group)
Жанр: боевик, приключения
Продолжительность: 2:02:19

Перевод: Профессиональный дублированный(лицензия)
Русские субтитры: нет
Режиссер на русском: Цуй Харк / Tsui Hark

В ролях: Джет Ли, Чжоу Сюнь, Чэнь Кунь, Луньмэй Квай, Юйчунь Ли, Мевис Фэн, Фан Сю-Вонг, Джа Хуи Лью, Цзянькуй Сунь, Чиен Шенг

Описание: Согласно древней легенде каждые 60 лет сильнейшая песчаная буря смывает песок, под которым спрятан Золотой город, полный сокровищ. В ожидании бури в гостинице Врата Дракона собирается разномастная компания охотников за сокровищами Золотого города. Тут и император одной из китайских провинций и тайный министр другой провинции и две банды наемных убийц. Все они жаждут завладеть сокровищами, а ситуация усложняется тем, что кое у кого из постояльцев отеля есть личные счеты друг к другу

Сэмпл: http://sendfile.su/1399357

Качество: BDrip, 1080p
Контейнер: MKV
Формат 3D: OverUnder / Вертикальная стереопара
Порядок ракурсов: левый ракурс первый
Видео кодек: x264
Аудио кодек: AC3
Видео: AVC / High@L5.0 / 23,976 fps / 1920х2160 / 18,3 Мбит/сек
Аудио: Русский / AC3 / 48 KHz / 5.1 ch / 640 Кбит/сек(лицензия)

ВНИМАНИЕ ! На встроенных ТВ-плеерах работать не будет!!!

ТВ Samsung в названии которого есть надпись Ultra HD , и LG Ultra HD 800 серии, LG C6P, Xiaomi Mi TV 2 воспроизводят полные стереопары встроенными плеерами
Железные плееры на которых воспроизводятся полные стереопары:Popcorn C-200 , Dune HD Smart D1 , Dune HD DUO , Dune HD Smart H1 , Dune HD Smart B1 , Dune HD Max , Dune HD TV-303D , Dune HD Base 3D, Philips HMP7001, Aura HD, MECOOL BB2
Чтобы изображение было на весь экран в плеере выставляем, если рип 1920х1600 - то выставляем 2.35:1 , если 1920х2160 - то выставляем 16:9
Общее
Уникальный идентификатор : 241201768350599234887329896006480023377 (0xB575C55526C228A78D41B0F4E7CBCF51)
Полное имя : D:\Flying Swords of Dragon Gate.Rip by SeRoGa00.mkv
Формат : Matroska
Версия формата : Version 2
Размер файла : 16,7 Гбайт
Продолжительность : 2 ч. 3 м.
Общий поток : 19,3 Мбит/сек
Дата кодирования : UTC 2018-02-16 10:34:17
Программа кодирования : mkvmerge v3.4.0 ('Rapunzel') сборка от May 15 2010 09:38:20
Библиотека кодирования : libebml v0.8.0 + libmatroska v0.9.0

Видео
Идентификатор : 1
Формат : AVC
Формат/Информация : Advanced Video Codec
Профиль формата : High@L5.0
Параметр CABAC формата : Да
Параметр ReFrames формата : 4 кадра
Идентификатор кодека : V_MPEG4/ISO/AVC
Продолжительность : 2 ч. 3 м.
Битрейт : 18,3 Мбит/сек
Ширина : 1920 пикселей
Высота : 2160 пикселей
Соотношение сторон : 0,889
Частота кадров : 23,976 кадра/сек
Цветовое пространство : YUV
Субдискретизация насыщенности : 4:2:0
Битовая глубина : 8 бит
Тип развёртки : Прогрессивная
Бит/(Пиксели*Кадры) : 0.184
Размер потока : 15,8 Гбайт (95%)
Заголовок : Rip by SeRoGa00
Библиотека кодирования : x264 core 155 r2901 7d0ff22
Настройки программы : cabac=1 / ref=4 / deblock=1:-3:-3 / analyse=0x3:0x113 / me=umh / subme=10 / psy=1 / psy_rd=1.00:0.15 / mixed_ref=1 / me_range=24 / chroma_me=1 / trellis=2 / 8x8dct=1 / cqm=0 / deadzone=21,11 / fast_pskip=1 / chroma_qp_offset=-3 / threads=12 / lookahead_threads=6 / sliced_threads=0 / nr=0 / decimate=0 / interlaced=0 / bluray_compat=0 / constrained_intra=0 / bframes=10 / b_pyramid=2 / b_adapt=2 / b_bias=0 / direct=3 / weightb=1 / open_gop=0 / weightp=2 / keyint=250 / keyint_min=23 / scenecut=40 / intra_refresh=0 / rc_lookahead=60 / rc=crf / mbtree=1 / crf=18.0 / qcomp=0.60 / qpmin=10 / qpmax=69 / qpstep=4 / vbv_maxrate=40000 / vbv_bufsize=40000 / crf_max=0.0 / nal_hrd=none / filler=0 / ip_ratio=1.40 / aq=1:1.00
Язык : English
Default : Нет
Forced : Нет

Аудио
Идентификатор : 2
Формат : AC-3
Формат/Информация : Audio Coding 3
Расширение режима : CM (complete main)
Параметр Endianness формата : Big
Идентификатор кодека : A_AC3
Продолжительность : 2 ч. 3 м.
Вид битрейта : Постоянный
Битрейт : 640 Кбит/сек
Каналы : 6 каналов
Расположение каналов : Front: L C R, Side: L R, LFE
Частота : 48,0 КГц
Битовая глубина : 16 бит
Метод сжатия : С потерями
Размер потока : 566 Мбайт (3%)
Язык : Russian
Default : Да
Forced : Нет

Меню
00:00:00.000 : en:00:00:00.000
00:09:21.478 : en:00:09:21.478
00:22:38.983 : en:00:22:38.983
00:35:16.823 : en:00:35:16.823
00:46:12.019 : en:00:46:12.019
00:58:50.485 : en:00:58:50.485
01:11:12.185 : en:01:11:12.185
01:22:49.464 : en:01:22:49.464
01:33:54.504 : en:01:33:54.504
01:44:50.451 : en:01:44:50.451
01:57:47.644 : en:01:57:47.644
скриншот   скриншот   скриншот   скриншот   скриншот   скриншот  
pb.wtf



Скачать Врата дракона в 3Д через торрент https://d.radikal.ru/d19/1802/8d/6589ca15618d.png Скачать, смотреть онлайн Врата дракона в 3Д бесплантно в хорошем качестве Описание: Согласно древней легенде каждые 60 лет сильнейшая песчаная буря смывает песок, под которым спрятан Золотой город, полный ... 5 10 1
Торрент: Зарегистрирован [2018-02-16 11:43] · скачан: 22 раз
Статус: √ проверено
Размер: 16.71 GB
Как cкачать? Как скачать Врата дракона в 3Д через торрент | UTorrent

28-11-2019 20:33  

Отключить всю рекламу на сайте

    Дорогой пользователь! Огромная просьба, поблагодарите релизера, оцените раздачу и оставьте свои комментарий, если Вы скачали Врата дракона в 3Д через торрент бесплатно!
    Комментировать посты могут только пользователи прошедшие не сложную регистрацию
    Показать сообщения:    

    Врата дракона в 3Д через торрент
    Скачать бесплатно Врата дракона в 3Д
    Врата дракона в 3Д скачать торрент
    Врата дракона в 3Д смотреть онлайн
    Cкачать фильм Врата дракона в 3Д бесплатно
    Врата дракона в 3Д скачать торрент в хорошем качестве
    Врата дракона в 3Д смотреть онлайн бесплатно в хорошем качестве


    Вы не можете начинать темы
    Вы не можете отвечать на сообщения
    Вы не можете редактировать свои сообщения
    Вы не можете удалять свои сообщения
    Вы не можете голосовать в опросах
    Вы не можете прикреплять файлы к сообщениям
    Вы можете скачивать файлы