Всегда рабочее зеркало без VPN и Proxy просто перед .vidak.icu напиши любое слово или цифру, Пример http://kcts.vidak.icu

MVO

MVO

1 сезон

1

1 сезон

iTunes

1 сезон

13

1 сезон

Deluxe

pack

Рекомендуем

Repack

30

ВАЖНО

RePack

MK11

RePack

jed

RePack

fifa19

RePack

RDR2

RePack

NEED FOR SPEED™ PAYBACK

Кинопоиск HD

6 сезон

 Острые козырьки 6 сезон

Все сериалы

все сериалы на PB.wtf

RePack

FAR CRY 5
  
Magnet ссылка

Гранд тур / The Grand Tour / Сезон: 2 / Серии: 1-11 из 11 [2017, Автошоу, WEBRip 720p ] MVO [Jaskier] pb.wtf

Гранд тур через торрент pb.wtf

Размер: 23.09 GB | Добавлен: 4 года 5 мес. назад | Торрент скачан:48 раз
Смотреть онлайн Гранд тур | Скачать    Ребята, помогите собрать деньги на оплату серверов!!!

20-02-2018 13:41 Гранд тур Скачать торрент  

Гранд тур / The Grand TourИнформация о фильме:

Название: Гранд тур
Оригинальное название: The Grand Tour
Год выпуска: 2017
Страна: Великобритания
Вид спорта: Автошоу
Продолжительность: ~ 01:10:00 выпуск
Комментарий: Профессиональный (многоголосый) - Jaskier
Субтитры: английские
Реклама: Присутствует звуковая (два раза в начале и конце по 8 сек.).

В ролях:

Джереми Кларксон, Ричард Хаммонд и Джэймс Мэй

Описание:

Предлагаем вашему вниманию долгожданный многими фанатами автомобилей проект с легендарными ведущими Джереми Кларксоном, Джеймом Мэйем и Ричардом Хаммондом. В центре внимания проекта оказываются автомобили со всего света. Ведущие отправляются в большое путешествие по миру, чтобы найти раритетные модели авто или же невероятные суперкары. В каждом новом городе будет снят очередной эпизод этого шоу, а ведущие проведут тест драйв местных автомобилей, рассказав о них кое-что по-настоящему интересное. На улице любителей "Топ Гира" огромный праздник - "Гранд Тур" вашему вниманию!

Информация о файле:

Качество: WEBRip 720p
Формат: MKV
Видео кодек: H.264
Аудио кодек: AC3

Видео: ~ 4000 kbps, 1280х720
Аудио#1 RU: AC3, 6 ch, 384 kbps
Аудио#2 EN: AC3, 6 ch, 384 kbps

скриншот   скриншот   скриншот  

Общее
Уникальный идентификатор : 242530637700998737663880682998554293631 (0xB675B3A6690490408BDFA7131D29F57F)
Полное имя : C:\The Grand Tour. Season 2 (WEBRip l 720p l Jaskier)\The.Grand.Tour.S02E01.720p.AMZN.WEBRip.DD5.1.x264-Jaskier.mkv
Формат : Matroska
Версия формата : Version 2
Размер файла : 2,27 Гбайт
Продолжительность : 1 ч. 10 м.
Режим общего битрейта : Переменный
Общий поток : 4641 Кбит/сек
Дата кодирования : UTC 2017-12-10 21:29:19
Программа кодирования : mkvmerge v7.8.0 ('River Man') 32bit built on Apr 3 2015 12:11:22
Библиотека кодирования : libebml v1.3.1 + libmatroska v1.4.2

Видео
Идентификатор : 1
Формат : AVC
Формат/Информация : Advanced Video Codec
Профиль формата : [email protected]
Параметр CABAC формата : Да
Параметр ReFrames формата : 5 кадров
Идентификатор кодека : V_MPEG4/ISO/AVC
Продолжительность : 1 ч. 10 м.
Вид битрейта : Переменный
Битрейт : 3781 Кбит/сек
Максимальный битрейт : 4500 Кбит/сек
Ширина : 1280 пикселей
Высота : 720 пикселей
Соотношение сторон : 16:9
Режим частоты кадров : Постоянный
Частота кадров : 25,000 кадров/сек
Цветовое пространство : YUV
Субдискретизация насыщенности : 4:2:0
Битовая глубина : 8 бит
Тип развёртки : Прогрессивная
Бит/(Пиксели*Кадры) : 0.164
Размер потока : 1,85 Гбайт (81%)
Язык : English
Default : Да
Forced : Нет
Цветовой диапазон : Limited
Основные цвета : BT.709
Характеристики трансфера : BT.709
Коэффициенты матрицы : BT.709

Аудио #1
Идентификатор : 2
Формат : AC-3
Формат/Информация : Audio Coding 3
Расширение режима : CM (complete main)
Параметр Endianness формата : Big
Идентификатор кодека : A_AC3
Продолжительность : 1 ч. 10 м.
Вид битрейта : Постоянный
Битрейт : 384 Кбит/сек
Каналы : 6 каналов
Расположение каналов : Front: L C R, Side: L R, LFE
Частота : 48,0 КГц
Частота кадров : 31,250 кадров/сек (1536 spf)
Метод сжатия : С потерями
Размер потока : 192 Мбайт (8%)
Заголовок : Jaskier
Язык : Russian
Default : Да
Forced : Нет

Аудио #2
Идентификатор : 3
Формат : AC-3
Формат/Информация : Audio Coding 3
Расширение режима : CM (complete main)
Параметр Endianness формата : Big
Идентификатор кодека : A_AC3
Продолжительность : 1 ч. 10 м.
Вид битрейта : Постоянный
Битрейт : 384 Кбит/сек
Каналы : 6 каналов
Расположение каналов : Front: L C R, Side: L R, LFE
Частота : 48,0 КГц
Частота кадров : 31,250 кадров/сек (1536 spf)
Метод сжатия : С потерями
Размер потока : 192 Мбайт (8%)
Язык : English
Default : Нет
Forced : Нет

Текст
Идентификатор : 4
Формат : UTF-8
Идентификатор кодека : S_TEXT/UTF8
Идентификатор кодека/Информация : UTF-8 Plain Text
Язык : English
Default : Нет
Forced : Нет
pb.wtf



Скачать Гранд тур через торрент http://s019.radikal.ru/i613/1712/e5/502acb8c0181.png Скачать, смотреть онлайн Гранд тур бесплантно в хорошем качестве Описание: Предлагаем вашему вниманию долгожданный многими фанатами автомобилей проект с легендарными ведущими Джереми Кларксоном, Джеймом ... 10 10 2
Info! Серебряная раздача, засчитывается только 50% скачанного.
Торрент: Зарегистрирован [2018-02-20 13:41] · скачан: 48 раз
Статус: √ проверено
Размер: 23.09 GB
Как cкачать? Как скачать Гранд тур через торрент | UTorrent

% Раздел Тема Автор DL S | L
Автоспорт [ 139.01 GB ] Гранд тур / The Grand Tour / Сезон: 2 / Серии: 1-11 из 11 [2017 Автошоу UHD WEBRip 2160p] [HDR] MVO [AlexFilm] bober100 Скачать
1 | 0
Автоспорт [ 64.15 GB ] Гранд тур / The Grand Tour / Сезон: 2 / Серии: 1-11 из 11 [2017 Автошоу WEB-DL 1080p] 2xMVO [AlexFilm NewStudio] bober100 Скачать
1 | 0
Автоспорт [ 24.99 GB ] Гранд Тур / The Grand Tour / Сезон 2 / Серии 1-11 из 11 [2017. Авто-шоу WEBRip 720p] [MVO] killermax2013 Скачать
1 | 0
Автоспорт [ 8.3 GB ] Гранд Тур / The Grand Tour / Сезон 2 / Серии 1-11 из 11 [2017. Авто-шоу WEBRip] [MVO] killermax2013 Скачать
1 | 0
Автоспорт [ 60.98 GB ] Гранд тур / The Grand Tour / Сезон: 2 / Серии: 1-11 из 11 [2017 Автошоу WEBRip 1080p] MVO [Jaskier] bober100 Скачать
1 | 0
Автоспорт [ 8.58 GB ] Гранд тур / The Grand Tour / Сезон: 2 / Серии: 1-11 из 11 [2017 Автошоу WEBRip] MVO [Jaskier] bober100 Скачать
1 | 0

28-11-2019 20:33  

Отключить вcю реклaмy на сайте

    Дорогой пользователь! Огромная просьба, поблагодарите релизера, оцените раздачу и оставьте свои комментарий, если Вы скачали Гранд тур через торрент бесплатно!
    Комментировать посты могут только пользователи прошедшие не сложную регистрацию
    Показать сообщения:    

    Гранд тур через торрент
    Скачать бесплатно Гранд тур
    Гранд тур скачать торрент
    Гранд тур смотреть онлайн
    Cкачать фильм Гранд тур бесплатно
    Гранд тур скачать торрент в хорошем качестве
    Гранд тур смотреть онлайн бесплатно в хорошем качестве


    Вы не можете начинать темы
    Вы не можете отвечать на сообщения
    Вы не можете редактировать свои сообщения
    Вы не можете удалять свои сообщения
    Вы не можете голосовать в опросах
    Вы не можете прикреплять файлы к сообщениям
    Вы можете скачивать файлы