Ссылка на приватное зеркало нашего сайта всего за 1$. Внимание количество ограничено!!!

2 сезон

iTunes

1 сезон

1

iTunes

iTunes

iTunes

1 сезон

RePack

30

ИГРА 18+

pack

ВАЖНО

!!Акция!!

Alien_RageХит недели

RePack

MK11
pack

Забери бонус

RePack

jed

!!Акция!!

Alien_Rage

RePack

fifa19

RePack

Assassins Creed: Odyssey

RePack

NEED FOR SPEED™ PAYBACK

4 сезон

9 сезон

Бесстыжие 9 сезон

Все сериалы

все сериалы на PB.wtf

RePack

FAR CRY 5
  

Для Начала Захватим Бруклин / First We Take Brooklyn (Дэнни А. Абекейзер) [2018, драма, криминал, WEB-DL 720p] MVO ["Синема УС"] pb.wtf

Для Начала Захватим Бруклин через торрент pb.wtf

Размер: 3.15 GB | Добавлен: 2 года 8 мес. назад | Торрент скачан:44 раза
Скачать  

21-02-2018 17:27 Для Начала Захватим Бруклин Скачать торрент  

Для Начала Захватим Бруклин / First We Take BrooklynГод выпуска: 2018
Страна: США
Жанр: драма, криминал
Продолжительность: 01:31:45
Перевод: Любительский (многоголосый) ["Синема УС"]
Субтитры: Английские

Режиссер: Дэнни А. Абекейзер

rating

В ролях:

АннаЛинн МакКорд, Харви Кейтель, Шарлотта МакКинни, Кэтрин Нардуччи, Эдоардо Баллерини, Гури Вайнберг, Идо Моссери, Саша Фельдман, Эли Данкер

Описание:

Получив пожизненный срок в одной из самых суровых тюрем Израиля, Микки Леви и не думал, что когда-то выйдет на свободу. Но после поправки в законах его всё-таки освобождают, и он перебирается в Нью-Йорк, в надежде начать с чистого листа. Он живёт у своего дяди в Бруклине, но суровая реальность жизни бывшего заключенного даёт о себе знать, и он оказывается втянут в жестокую войну за Влacть с русской мафией. Таким образом, Микки приходится вспомнить своё мрачное прошлое и навыки выживания, которые он приобрёл в тюрьме. Микки стремительно поднимается в преступном мире, но его крепкая хватка может довести его до смерти.

Качество: WEB-DL 720p
Формат: MKV
Видео кодек: H.264
Аудио кодек: AC3

Видео: 4534 Кбит/с, 1280x688
Аудио#1: Русский, (AC3, 2 ch, 384 Кбит/с)

скриншот  скриншот  скриншот  

Общее
Уникальный идентификатор : 192364109670932336891000015216108379501 (0x90B7FADAFE239AF791CFC04D25C81D6D)
Полное имя : D:\First.We.Take.Brooklyn.2018.P.WEB-DL.72Op_KOSHARA.mkv
Формат : Matroska
Версия формата : Version 2
Размер файла : 3,15 Гбайт
Продолжительность : 1 ч. 31 м.
Режим общего битрейта : Переменный
Общий поток : 4920 Кбит/сек
Дата кодирования : UTC 2018-02-20 17:55:50
Программа кодирования : mkvmerge v8.3.0 ('Over the Horizon') 64bit
Библиотека кодирования : libebml v1.3.1 + libmatroska v1.4.2

Видео
Идентификатор : 1
Формат : AVC
Формат/Информация : Advanced Video Codec
Профиль формата : High@L4.1
Параметр CABAC формата : Да
Параметр ReFrames формата : 4 кадра
Идентификатор кодека : V_MPEG4/ISO/AVC
Продолжительность : 1 ч. 31 м.
Вид битрейта : Переменный
Битрейт : 4534 Кбит/сек
Максимальный битрейт : 5000 Кбит/сек
Ширина : 1280 пикселей
Высота : 688 пикселей
Соотношение сторон : 1,85:1
Режим частоты кадров : Постоянный
Частота кадров : 23,976 (24000/1001) кадра/сек
Стандарт вещания : Component
Цветовое пространство : YUV
Субдискретизация насыщенности : 4:2:0
Битовая глубина : 8 бит
Тип развёртки : Прогрессивная
Бит/(Пиксели*Кадры) : 0.210
Размер потока : 2,84 Гбайт (90%)
Default : Да
Forced : Нет
Цветовой диапазон : Limited
Основные цвета : BT.709
Характеристики трансфера : BT.709
Коэффициенты матрицы : BT.709

Аудио
Идентификатор : 2
Формат : AC-3
Формат/Информация : Audio Coding 3
Расширение режима : CM (complete main)
Параметр Endianness формата : Big
Идентификатор кодека : A_AC3
Продолжительность : 1 ч. 31 м.
Вид битрейта : Постоянный
Битрейт : 384 Кбит/сек
Каналы : 2 канала
Расположение каналов : Front: L R
Частота : 48,0 КГц
Частота кадров : 31,250 кадров/сек (1536 spf)
Метод сжатия : С потерями
Размер потока : 252 Мбайт (8%)
Default : Да
Forced : Нет

pb.wtf



Скачать Для Начала Захватим Бруклин через торрент http://img12.lostpic.net/2018/02/21/8f4c8dd896f73898af2d108b9e06c1c3.jpg Скачать фильм Для Начала Захватим Бруклин через торрент бесплантно в хорошем качестве Описание: Получив пожизненный срок в одной из самых суровых тюрем Израиля, Микки Леви и не думал, что когда-то выйдет на свободу. Но после ... 10 10 3
Торрент: Зарегистрирован [2018-02-21 17:27] · скачан: 44 раз
Статус: T временная
Размер: 3.15 GB
Как cкачать? Как скачать Для Начала Захватим Бруклин через торрент | qTorrent

% Раздел Тема Автор DL S | L
T Фильмы (мультфильмы) cо спонсором показа (Новинки AVI/MKV) [ 1.37 GB ] Для Начала Захватим Бруклин / First We Take Brooklyn [2018 WEB-DLRip] MVO ["Синема УС"] bober100 Скачать
1 | 0

28-11-2019 20:33  

Отключить всю рекламу на сайте

    Дорогой пользователь! Огромная просьба, поблагодарите релизера, оцените раздачу и оставьте свои комментарий, если Вы скачали Для Начала Захватим Бруклин через торрент бесплатно! Внесите свою лепту в развитие PiratBit!
    Комментировать посты могут только пользователи прошедшие не сложную регистрацию
    Показать сообщения:    

    Для Начала Захватим Бруклин через торрент
    Скачать бесплатно Для Начала Захватим Бруклин
    Для Начала Захватим Бруклин скачать торрент
    Для Начала Захватим Бруклин смотреть онлайн
    Cкачать фильм Для Начала Захватим Бруклин бесплатно
    Для Начала Захватим Бруклин скачать торрент в хорошем качестве
    Для Начала Захватим Бруклин смотреть онлайн бесплатно в хорошем качестве


    Вы не можете начинать темы
    Вы не можете отвечать на сообщения
    Вы не можете редактировать свои сообщения
    Вы не можете удалять свои сообщения
    Вы не можете голосовать в опросах
    Вы не можете прикреплять файлы к сообщениям
    Вы можете скачивать файлы