Ссылка на приватное зеркало нашего сайта всего за 1$. Внимание количество ограничено!!!

2 сезон

iTunes

1 сезон

1

2 сезон

2 сезон

iTunes

1 сезон

RePack

30

Ultimate

ВАЖНО

ИГРА 18+

pack

RePack

MK11
pack

Забери бонус

RePack

jed

!!Акция!!

Alien_Rage

RePack

fifa19

RePack

Assassins Creed: Odyssey

RePack

NEED FOR SPEED™ PAYBACK

4 сезон

9 сезон

Бесстыжие 9 сезон

Все сериалы

все сериалы на PB.wtf

RePack

FAR CRY 5
  

Остров / Сезон 2 / Серии 1-19 из 19 (Александр Наумов (II), Михаил Старчак, Артем Насыбулин) [2018, Комедия, HDTV 1080i] pb.wtf

Остров через торрент pb.wtf

Размер: 25.86 GB | Добавлен: 2 года 8 мес. назад | Торрент скачан:72 раза
Скачать  

07-03-2018 13:32 Остров Скачать торрент  

ОстровГод выпуска: 2018
Страна: Россия
Жанр: Комедия
Продолжительность: ~ 00:24:00
Субтитры: Нет

Режиссер: Александр Наумов (II), Михаил Старчак, Артем Насыбулин



В ролях:

Янина Студилина, Денис Косяков, Ирина Вилкова, Кирилл Мелехов, Анастасия Асеева, Анфиса Вистингаузен, Григорий Калинин, Евгений Кулик, Роман Хан, Олеся Жураковская, Леонид Моложанов, Сергей Бурунов, Светлана Павлова, Светлана Харлап, Игорь Жижикин, Елена Ан, Василий Мичков, Георгий Пицхелаури, Азамат Нигманов, Евгений Сангаджиев

Описание:

«Остров» - комедийный сериал на телеканале ТНТ, события которого разворачиваются на небольшом необитаемом острове. На место прибыла съемочная команда и группа участников. По идеи программы участникам предстоит жесткая борьба друг с другом, а так же с дикими условиями проживания. Они будут получать задания, которые должны выполнить. И каждое успешно выполненное задание увеличивает их денежный счет.

Качество: HDTV 1080i
Формат: MPEG-TS

Видео: MPEG-4 AVC, ~ 7900 Кбит/с, 1920x1080
Аудио: Русский (MP2, 2 ch, 192 Кбит/с)
скриншот   скриншот   скриншот  

Общее
Идентификатор : 1 (0x1)
Полное имя : E:\торреннты\Ostrov.s02.HDTV.(1080i).2018.Nikolspup\Ostrov.s02.(01.seriya).HDTV.(1080i).2018.Nikolspup.ts
Формат : MPEG-TS
Размер файла : 1,48 Гбайт
Продолжительность : 25 м. 20 с.
Режим общего битрейта : Переменный
Общий поток : 8346 Кбит/сек

Видео
Идентификатор : 256 (0x100)
Идентификатор меню : 1 (0x1)
Формат : AVC
Формат/Информация : Advanced Video Codec
Профиль формата : High@L4.1
Настройки формата : CABAC / 3 Ref Frames
Параметр CABAC формата : Да
Параметр RefFrames формата : 3 кадра
Идентификатор кодека : 27
Продолжительность : 25 м. 20 с.
Вид битрейта : Постоянный
Битрейт : 7865 Кбит/сек
Ширина : 1920 пикселей
Высота : 1080 пикселей
Соотношение сторон : 16:9
Частота кадров : 25,000 кадров/сек
Стандарт вещания : PAL
Цветовое пространство : YUV
Субдискретизация насыщенности : 4:2:0
Битовая глубина : 8 бит
Тип развёртки : Прогрессивная
Бит/(Пиксели*Кадры) : 0.152
Размер потока : 1,37 Гбайт (93%)
Цветовой диапазон : Limited
Основные цвета : BT.709
Характеристики трансфера : BT.709
Коэффициенты матрицы : BT.709

Аудио
Идентификатор : 257 (0x101)
Идентификатор меню : 1 (0x1)
Формат : MPEG Audio
Версия формата : Version 1
Профиль формата : Layer 2
Идентификатор кодека : 3
Продолжительность : 25 м. 20 с.
Вид битрейта : Постоянный
Битрейт : 192 Кбит/сек
Каналы : 2 канала
Частота : 48,0 КГц
Частота кадров : 41,667 кадра/сек (1152 SPF)
Метод сжатия : С потерями
Размер потока : 34,8 Мбайт (2%)
Язык : English

pb.wtf



Скачать Остров через торрент http://i103.fastpic.ru/big/2018/0205/98/e53b264d02df9a805097b0fee1c5f698.jpg Скачать фильм Остров через торрент бесплантно в хорошем качестве Описание: «Остров» - комедийный сериал на телеканале ТНТ, события которого разворачиваются на небольшом необитаемом острове. На место ... 10 10 2
Info! Золотая раздача, скачанное не засчитывается.
Торрент: Зарегистрирован [2018-03-08 08:39] · скачан: 72 раз
Статус: √ проверено
Размер: 25.86 GB
Как cкачать? Как скачать Остров через торрент | qTorrent

% Раздел Тема Автор DL S | L
Наши сериалы [ 6.09 GB ] Остров / Сезон: 2 / Серии 1-19 из 19 Михаил Старчак Артем Насыбулин) [2018 WEB-DLRip] GEKADOL Скачать
1 | 0
Наши сериалы [ 6.74 GB ] Остров / Сезон 2 / Серии 1-19 из 19 Михаил Старчак Артем Насыбулин) [2018 HDTVRip-AVC] bober100 Скачать
1 | 0
Наши сериалы [ 11.59 GB ] Остров / Сезон 2 / Серии 1-19 из 19 Михаил Старчак Артем Насыбулин) [2018 WEB-DL 720p] bober100 Скачать
1 | 0
Наши сериалы [ 3.45 GB ] Остров / Сезон 2 / Серии 1-19 из 19 Михаил Старчак Артем Насыбулин) [2018 HDTVRip] bober100 Скачать
1 | 0
Наши сериалы [ 5.58 GB ] Остров / Сезон 2 / Серии 1-19 из 19 Михаил Старчак Артем Насыбулин) [2018 SATRip] bober100 Скачать
1 | 0

28-11-2019 20:33  

Отключить всю рекламу на сайте

    Дорогой пользователь! Огромная просьба, поблагодарите релизера, оцените раздачу и оставьте свои комментарий, если Вы скачали Остров через торрент бесплатно! Внесите свою лепту в развитие PiratBit!
    Комментировать посты могут только пользователи прошедшие не сложную регистрацию
    Показать сообщения:    

    Остров через торрент
    Скачать бесплатно Остров
    Остров скачать торрент
    Остров смотреть онлайн
    Cкачать фильм Остров бесплатно
    Остров скачать торрент в хорошем качестве
    Остров смотреть онлайн бесплатно в хорошем качестве


    Вы не можете начинать темы
    Вы не можете отвечать на сообщения
    Вы не можете редактировать свои сообщения
    Вы не можете удалять свои сообщения
    Вы не можете голосовать в опросах
    Вы не можете прикреплять файлы к сообщениям
    Вы можете скачивать файлы