Всегда рабочее зеркало без VPN и Proxy просто перед .vidak.icu напиши любое слово или цифру, Пример http://k6vs.vidak.icu

MVO

2 сезон

2 сезон

1

1 сезон

iTunes

2 сезон

13

1 сезон

Deluxe

pack

Рекомендуем

Пиратка

30

ВАЖНО

RePack

MK11

RePack

jed

RePack

fifa19

RePack

RDR2

RePack

NEED FOR SPEED™ PAYBACK

Кинопоиск HD

6 сезон

 Острые козырьки 6 сезон

Все сериалы

все сериалы на PB.wtf

RePack

FAR CRY 5

Anonymous, нам критически не хватает 5601 руб. на оплату серверов и переферии за Апрель, помоги нам пожалуйста, вся надежда только на тебя. В благодарность мы отключим тебе всю рекламу на сайте!

×
  
Magnet ссылка

Тело / El cuerpo (Ориол Паоло / Oriol Paulo) [ 2012 , Испания , триллер , BDRip 720]AVO pb.wtf

Тело через торрент pb.wtf

Размер: 5.8 GB | Добавлен: 8 лет 3 мес. назад | Торрент скачан:69 раз
Смотреть онлайн Тело | Скачать    Ребята, помогите собрать деньги на оплату серверов!!!

01-02-2014 06:21 Тело Скачать торрент  

Тело / El cuerpo
«В стиле Хичкока, психологический триллер»

Год выпуска: 2012
Страна: Испания
Жанр: триллер
Продолжительность: 01:51:13
Перевод: Авторский (Боровой (Карповский) Антон)
Субтитры: Английские (UTF-8), Испанские (UTF-8)

Режиссер: Ориол Паоло / Oriol Paulo
Сценарий: Ориол Паоло / Oriol Paulo, Лара Сендим / Lara Sendim
Продюсер: Мерседес Гамеро / Mercedes Gamero, Микель Лехарса / Mikel Lejarza, Хоакин Падро / Joaquín Padró, Мар Тарганова / Mar Targarona, Reyes Matabuena
Оператор: Оскар Фаура / Óscar Faura
Композитор: Серхио Моуре / Sergio Moure

Хосе Коронадо (Jaime PeГ±a), Уго Силва (ГЃlex Ulloa), Белен Руэда (Mayka Villaverde), Аура Гарридо (Carla), Мигель Гелаберт (Vigilante ГЃngel Torres), Хуан Пабло Шук (Agente Pablo), Ориоль Вила (Agente Mateos), Карлота Ольсина (Erica Ulloa), Патрисия Баргальо (Agente Norma), Миа Эстеве (Luna Villaverde), Сильвия Аранда (Ruth), Манель Дуэсо (Agente Carlos)

Мировая премьера: 4 октября 2012

Описание:Грузовик сбивает человека, убегающего от кого-то или от чего-то в панике. Прибывшие на место полицейские выясняют, что это - ночной сторож из близлежащего морга. Так что так напугало несчастного? И куда делся из отсека N3 недавно привезенный в морг труп?..

Рейтинг
kinopoisk.ru: 7.452 (2731)
imdb.com: 7.10 (4433)

Качество: BDRip720
Формат: MKV
Видео кодек: AVC
Аудио кодек: AC3/DTS
Видео: 5359 Кбит/сек, 1280*536 (2,40:1), в 24,000 кадра/сек, AVC
Аудио №1: Русский 448 Кбит/сек, 48,0 КГц, 16 бит, 6 каналов, AC-3
Аудио №2: Испанский 1509 Кбит/сек, 48,0 КГц, 24 бит, 6 каналов, DTS


Общее
Кол-во : 284
Кол-во потоков такого типа : 1
Тип потока : General
Тип потока : Общее
Идентификатор типа потока : 0
Inform : Matroska: 5,80 Гбайт, 1 ч. 51 м.
Уникальный идентификатор : 238203364859300162405087603773756515926
Уникальный идентификатор : 238203364859300162405087603773756515926 (0xB3344CA0793C4157B6320A51DE31A656)
Кол-во видеопотоков : 1
Кол-во аудиопотоков : 2
Кол-во текстовых потоков : 2
Кол-во потоков меню : 1
Video_Format_List : AVC
Video_Format_WithHint_List : AVC
Видеокодеки : AVC
Video_Language_List : English
Audio_Format_List : AC-3 / DTS
Audio_Format_WithHint_List : AC-3 / DTS
Аудиокодеки : AC3 / DTS
Audio_Language_List : Russian / Spanish
Text_Format_List : UTF-8 / UTF-8
Text_Format_WithHint_List : UTF-8 / UTF-8
Текстовые кодеки : UTF-8 / UTF-8
Text_Language_List : English / Spanish
Полное имя : H:ТОРРЕНТЫТело720.mkv
Имя папки : H:ТОРРЕНТЫ
Имя файла : Тело720
Расширение : mkv
Формат : Matroska
Формат : Matroska
Формат/Ссылка : http://packs.matroska.org/
Формат/Используется в : mkv mk3d mka mks
Коммерческое название : Matroska
Версия формата : Version 2
Кодек : Matroska
Кодек : Matroska
Кодек/Ссылка : http://packs.matroska.org/
Кодек/Используется в : mkv mk3d mka mks
Размер файла : 6226672246
Размер файла : 5,80 Гбайт
Размер файла : 6 Гбайт
Размер файла : 5,8 Гбайт
Размер файла : 5,80 Гбайт
Размер файла : 5,799 Гбайт
Продолжительность : 6673291
Продолжительность : 1 ч. 51 м.
Продолжительность : 1 ч. 51 м. 13 с. 291 мс.
Продолжительность : 1 ч. 51 м.
Продолжительность : 01:51:13.291
Общий поток : 7464590
Общий поток : 7465 Кбит/сек
Размер потока : 123909928
Размер потока : 118 Мбайт (2%)
Размер потока : 118 Мбайт
Размер потока : 118 Мбайт
Размер потока : 118 Мбайт
Размер потока : 118,2 Мбайт
Размер потока : 118 Мбайт (2%)
Пропорции потока : 0.01990
Заголовок : El cuerpo 2012 720p BluRay DTS x264-TayTO
Название фильма : El cuerpo 2012 720p BluRay DTS x264-TayTO
Дата кодирования : UTC 2013-11-18 15:23:52
Дата файла : UTC 2014-02-01 05:04:44.827
Дата файла (местная) : 2014-02-01 12:04:44.827
Дата изменения файла : UTC 2014-02-01 05:52:27.624
Дата изменения файла (местная) : 2014-02-01 12:52:27.624
Программа кодирования : mkvmerge v2.9.9 ('Tutu') built on Nov 25 2009 21:13:32
Библиотека кодирования : libebml v0.7.9 + libmatroska v0.8.1
Библиотека кодирования : libebml v0.7.9 + libmatroska v0.8.1

Видео
Кол-во : 271
Кол-во потоков такого типа : 1
Тип потока : Video
Тип потока : Видео
Идентификатор типа потока : 0
StreamOrder : 0
Inform : English, 5359 Кбит/сек, 1280*536 (2,40:1), в 24,000 кадра/сек, AVC (High@L4.1) (CABAC / 12 Ref Frames)
Идентификатор : 1
Идентификатор : 1
Уникальный идентификатор : 1
Формат : AVC
Формат/Информация : Advanced Video Codec
Формат/Ссылка : http://developers.videolan.org/x264.html
Коммерческое название : AVC
Профиль формата : High@L4.1
Настройки формата : CABAC / 12 Ref Frames
Параметр CABAC формата : Yes
Параметр CABAC формата : Да
Параметр ReFrames формата : 12
Параметр ReFrames формата : 12 кадров
Интернет-тип носителя : video/H264
Идентификатор кодека : V_MPEG4/ISO/AVC
Идентификатор кодека/Ссылка : http://ffdshow-tryout.sourceforge.net/
Кодек : V_MPEG4/ISO/AVC
Кодек : AVC
Кодек/Семейство : AVC
Кодек/Информация : Advanced Video Codec
Кодек/Ссылка : http://ffdshow-tryout.sourceforge.net/
Профиль кодека : High@L4.1
Настройки кодека : CABAC / 12 Ref Frames
Параметр CABAC кодека : Yes
Codec_Settings_RefFrames : 12
Продолжительность : 6673292
Продолжительность : 1 ч. 51 м.
Продолжительность : 1 ч. 51 м. 13 с. 292 мс.
Продолжительность : 1 ч. 51 м.
Продолжительность : 01:51:13.292
Битрейт : 5359045
Битрейт : 5359 Кбит/сек
Ширина : 1280
Ширина : 1280 пикселей
Высота : 536
Высота : 536 пикселей
Пропорции пикселя : 1.000
Соотношение сторон : 2.388
Соотношение сторон : 2,40:1
Режим частоты кадров : CFR
Режим частоты кадров : Постоянный
Частота кадров : 24.000
Частота кадров : 24,000 кадра/сек
Счётчик кадров : 160159
Разрешение : 8
Разрешение : 8 бит
Колориметрия : 4:2:0
Цветовое пространство : YUV
Субдискретизация насыщенности : 4:2:0
Битовая глубина : 8
Битовая глубина : 8 бит
Тип развёртки : Progressive
Тип развёртки : Прогрессивная
Переплетение : PPF
Переплетение : Прогрессивная
Бит/(Пиксели*Кадры) : 0.325
Задержка : 0
Задержка : 00:00:00.000
Задержка в оригинале : Container
Задержка в оригинале : Контейнер
Размер потока : 4470308508
Размер потока : 4,16 Гбайт (72%)
Размер потока : 4 Гбайт
Размер потока : 4,2 Гбайт
Размер потока : 4,16 Гбайт
Размер потока : 4,163 Гбайт
Размер потока : 4,16 Гбайт (72%)
Пропорции потока : 0.71793
Заголовок : -=Release for NNM-CLUB.RU=-
Библиотека кодирования : x264 - core 133 r2334 a3ac64b
Библиотека кодирования : x264 core 133 r2334 a3ac64b
Библиотека кодирования/Имя : x264
Библиотека кодирования/Version : core 133 r2334 a3ac64b
Настройки программы : cabac=1 / ref=12 / deblock=1:-3:-3 / analyse=0x3:0x133 / me=tesa / subme=11 / psy=1 / psy_rd=1.05:0.00 / mixed_ref=1 / me_range=16 / chroma_me=1 / trellis=2 / 8x8dct=1 / cqm=0 / deadzone=21,11 / fast_pskip=0 / chroma_qp_offset=-2 / threads=12 / lookahead_threads=2 / sliced_threads=0 / nr=0 / decimate=1 / interlaced=0 / bluray_compat=0 / constrained_intra=0 / bframes=9 / b_pyramid=2 / b_adapt=2 / b_bias=0 / direct=3 / weightb=1 / open_gop=0 / weightp=2 / keyint=250 / keyint_min=24 / scenecut=40 / intra_refresh=0 / rc=crf / mbtree=0 / crf=16.5 / qcomp=0.75 / qpmin=0 / qpmax=69 / qpstep=4 / ip_ratio=1.40 / pb_ratio=1.30 / aq=1:0.75
Язык : en
Язык : English
Язык : English
Язык : en
Язык : eng
Язык : en
Default : No
Default : Нет
Forced : No
Forced : Нет

Аудио #1
Кол-во : 243
Кол-во потоков такого типа : 2
Тип потока : Audio
Тип потока : Аудио
Идентификатор типа потока : 0
Позиция идентификатора типа потока : 1
StreamOrder : 1
Inform : Russian, 448 Кбит/сек, 48,0 КГц, 16 бит, 6 каналов, AC-3
Идентификатор : 2
Идентификатор : 2
Уникальный идентификатор : 2128307856
Формат : AC-3
Формат/Информация : Audio Coding 3
Коммерческое название : AC-3
Расширение режима : CM (complete main)
Параметр Endianness формата : Big
Идентификатор кодека : A_AC3
Кодек : AC3
Кодек : AC3
Кодек/Семейство : AC3
Кодек/Информация : Dolby AC3
Продолжительность : 6673291
Продолжительность : 1 ч. 51 м.
Продолжительность : 1 ч. 51 м. 13 с. 291 мс.
Продолжительность : 1 ч. 51 м.
Продолжительность : 01:51:13.291
Вид битрейта : CBR
Вид битрейта : Постоянный
Битрейт : 448000
Битрейт : 448 Кбит/сек
Каналы : 6
Каналы : 6 каналов
Расположение каналов : Front: L C R, Side: L R, LFE
Расположение каналов : 3/2/0.1
Частота : 48000
Частота : 48,0 КГц
Количество образцов : 320317968
Разрешение : 16
Разрешение : 16 бит
Битовая глубина : 16
Битовая глубина : 16 бит
Метод сжатия : Lossy
Метод сжатия : С потерями
Задержка : 0
Задержка : 00:00:00.000
Задержка в оригинале : Container
Задержка в оригинале : Контейнер
Задержка видео : 0
Задержка видео : 0
Размер потока : 373704296
Размер потока : 356 Мбайт (6%)
Размер потока : 356 Мбайт
Размер потока : 356 Мбайт
Размер потока : 356 Мбайт
Размер потока : 356,4 Мбайт
Размер потока : 356 Мбайт (6%)
Пропорции потока : 0.06002
Заголовок : AC3.448.Kbps (6ch) Russian (AVO A.Карповский)
Язык : ru
Язык : Russian
Язык : Russian
Язык : ru
Язык : rus
Язык : ru
Default : Yes
Default : Да
Forced : No
Forced : Нет
bsid : 4
dialnorm : -31
dialnorm/String : -31 dB
compr : -0.28
compr/String : -0.28 dB
acmod : 7
lfeon : 1
dialnorm_Average : -31
dialnorm_Average/String : -31 dB
dialnorm_Minimum : -31
dialnorm_Minimum/String : -31 dB
dialnorm_Maximum : -31
dialnorm_Maximum/String : -31 dB
dialnorm_Count : 2
compr_Average : -0.28
compr_Average/String : -0.28 dB
compr_Minimum : -0.28
compr_Minimum/String : -0.28 dB
compr_Maximum : -0.28
compr_Maximum/String : -0.28 dB
compr_Count : 2

Аудио #2
Кол-во : 222
Кол-во потоков такого типа : 2
Тип потока : Audio
Тип потока : Аудио
Идентификатор типа потока : 1
Позиция идентификатора типа потока : 2
StreamOrder : 2
Inform : Spanish, 1509 Кбит/сек, 48,0 КГц, 24 бит, 6 каналов, DTS
Идентификатор : 3
Идентификатор : 3
Уникальный идентификатор : 491094943
Формат : DTS
Формат/Информация : Digital Theater Systems
Коммерческое название : DTS
Режим : 16
Параметр Endianness формата : Big
Идентификатор кодека : A_DTS
Кодек : DTS
Кодек : DTS
Кодек/Семейство : DTS
Продолжительность : 6673291
Продолжительность : 1 ч. 51 м.
Продолжительность : 1 ч. 51 м. 13 с. 291 мс.
Продолжительность : 1 ч. 51 м.
Продолжительность : 01:51:13.291
Вид битрейта : CBR
Вид битрейта : Постоянный
Битрейт : 1509000
Битрейт : 1509 Кбит/сек
Каналы : 6
Каналы : 6 каналов
Расположение каналов : Front: L C R, Side: L R, LFE
Расположение каналов : 3/2/0.1
Частота : 48000
Частота : 48,0 КГц
Количество образцов : 320317968
Разрешение : 24
Разрешение : 24 бит
Битовая глубина : 24
Битовая глубина : 24 бит
Метод сжатия : Lossy
Метод сжатия : С потерями
Задержка : 11
Задержка : 11 мс.
Задержка : 11 мс.
Задержка : 11 мс.
Задержка : 00:00:00.011
Задержка в оригинале : Container
Задержка в оригинале : Контейнер
Задержка видео : 11
Задержка видео : 11 мс.
Задержка видео : 11 мс.
Задержка видео : 11 мс.
Задержка видео : 00:00:00.011
Задержка видео : 11
Задержка видео : 11 мс.
Задержка видео : 11 мс.
Задержка видео : 11 мс.
Задержка видео : 00:00:00.011
Размер потока : 1258749514
Размер потока : 1,17 Гбайт (20%)
Размер потока : 1 Гбайт
Размер потока : 1,2 Гбайт
Размер потока : 1,17 Гбайт
Размер потока : 1,172 Гбайт
Размер потока : 1,17 Гбайт (20%)
Пропорции потока : 0.20215
Заголовок : DTS.1509.Kbps (6ch) Spanish
Язык : es
Язык : Spanish
Язык : Spanish
Язык : es
Язык : spa
Язык : es
Default : No
Default : Нет
Forced : No
Forced : Нет

Текст #1
Кол-во : 195
Кол-во потоков такого типа : 2
Тип потока : Text
Тип потока : Текст
Идентификатор типа потока : 0
Позиция идентификатора типа потока : 1
StreamOrder : 3
Inform : English, UTF-8
Идентификатор : 4
Идентификатор : 4
Уникальный идентификатор : 431573634
Формат : UTF-8
Коммерческое название : UTF-8
Идентификатор кодека : S_TEXT/UTF8
Идентификатор кодека/Информация : UTF-8 Plain Text
Кодек : S_TEXT/UTF8
Кодек : UTF-8
Кодек/Информация : UTF-8 Plain Text
Заголовок : English (Full)
Язык : en
Язык : English
Язык : English
Язык : en
Язык : eng
Язык : en
Default : No
Default : Нет
Forced : No
Forced : Нет

Текст #2
Кол-во : 195
Кол-во потоков такого типа : 2
Тип потока : Text
Тип потока : Текст
Идентификатор типа потока : 1
Позиция идентификатора типа потока : 2
StreamOrder : 4
Inform : Spanish, UTF-8
Идентификатор : 5
Идентификатор : 5
Уникальный идентификатор : 3887048874
Формат : UTF-8
Коммерческое название : UTF-8
Идентификатор кодека : S_TEXT/UTF8
Идентификатор кодека/Информация : UTF-8 Plain Text
Кодек : S_TEXT/UTF8
Кодек : UTF-8
Кодек/Информация : UTF-8 Plain Text
Заголовок : Spanish (SDH)
Язык : es
Язык : Spanish
Язык : Spanish
Язык : es
Язык : spa
Язык : es
Default : No
Default : Нет
Forced : No
Forced : Нет

Меню
Кол-во : 89
Кол-во потоков такого типа : 1
Тип потока : Menu
Тип потока : Меню
Идентификатор типа потока : 0
Chapters_Pos_Begin : 77
Chapters_Pos_End : 89
00:00:00.000 : en:00:00:00.000
00:08:30.000 : en:00:08:30.000
00:18:20.000 : en:00:18:20.000
00:26:33.000 : en:00:26:33.000
00:36:05.000 : en:00:36:05.000
00:45:13.000 : en:00:45:13.000
00:52:10.000 : en:00:52:10.000
01:00:11.000 : en:01:00:11.000
01:08:29.000 : en:01:08:29.000
01:16:49.000 : en:01:16:49.000
01:28:19.000 : en:01:28:19.000
01:34:22.000 : en:01:34:22.000


скриншот  скриншот  скриншот  скриншот  скриншот  скриншот  скриншот  



pb.wtf



Скачать Тело через торрент http://trueimages.ru/img/e7/11/d768ce25.jpg Скачать, смотреть онлайн Тело бесплантно в хорошем качестве Описание:Грузовик сбивает человека, убегающего от кого-то или от чего-то в панике. Прибывшие на место полицейские выясняют, что это - ... 10 10 6
Info! Золотая раздача, скачанное не засчитывается.
Торрент: Зарегистрирован [2014-02-01 06:21] · скачан: 69 раз
Статус: √ проверено
Размер: 5.8 GB
Как cкачать? Как скачать Тело через торрент | UTorrent

% Раздел Тема Автор DL S | L
Фильмы 2012 [ 3.53 GB ] Тело / El cuerpo [2012 BDRip by msltel] MVO AVO 2 x VO msltel Скачать
1 | 0
Фильмы [HD 720p, 1080p] (Хороший звук DUB, MVO) [ 13.96 GB ] Тело / El cuerpo [2012 BDRip 1080p by msltel] MVO AVO 2 x VO msltel Скачать
1 | 0
Фильмы [HD 720p, 1080p] (Хороший звук DUB, MVO) [ 5.34 GB ] Тело / El cuerpo [2012 BDRip 720p by msltel] MVO AVO 2 x VO msltel Скачать
2 | 0
Фильмы с авторской озвучкой [ 1.68 GB ] Тело / El cuerpo [ 2012 Испания HDRip ]AVO GEKADOL Скачать
1 | 0

28-11-2019 20:33  

Отключить всю рекламу на сайте

01-02-2014 16:26 Тело Скачать торрент  

станьте на раздачу плизpb.wtf



07-03-2018 20:34 Тело Скачать торрент  

можно на раздачу ребзя плиз!!!!pb.wtf



07-03-2018 20:37 Тело Скачать торрент  

уже не надо спсpb.wtf



    Дорогой пользователь! Огромная просьба, поблагодарите релизера, оцените раздачу и оставьте свои комментарий, если Вы скачали Тело через торрент бесплатно!
    Комментировать посты могут только пользователи прошедшие не сложную регистрацию
    Показать сообщения:    

    Тело через торрент
    Скачать бесплатно Тело
    Тело скачать торрент
    Тело смотреть онлайн
    Cкачать фильм Тело бесплатно
    Тело скачать торрент в хорошем качестве
    Тело смотреть онлайн бесплатно в хорошем качестве


    Вы не можете начинать темы
    Вы не можете отвечать на сообщения
    Вы не можете редактировать свои сообщения
    Вы не можете удалять свои сообщения
    Вы не можете голосовать в опросах
    Вы не можете прикреплять файлы к сообщениям
    Вы можете скачивать файлы