новый адрес
Ссылка на приватное зеркало всего за 1$. Внимание количество ограничено!!!

iTunes

1+1

iTunes

мы

WEB-DL

1

iTunes

Чернобыль

iTunes

Ральф против интернета

Лицензия

ПШазам

Лицензия

Оно 2

Лицензия

30
pack

Вам бонус

ВАЖНО

!!Акция!!

Alien_RageХит недели

RePack

Resident Evil 21

ИГРА 18+

pack

RePack

jed

!!Акция!!

Alien_Rage

RePack

fifa19

RePack

Assassins Creed: Odyssey

RePack

NEED FOR SPEED™ PAYBACK

3 сезон

9 сезон

Бесстыжие 9 сезон

Все сериалы

все сериалы на PB.wtf

RePack

FAR CRY 5
Ребята, катастрофически не хватает 1900р. для оплаты серверов за Октябрь (всвязи с блокировками трафик упал в 3 раза), 1-2р., выручайте.
  

Мэверик: охота в Бразилии / Maverick: Manhunt Brazil (Эмилиано Рушель) [2016, боевик, триллер, мелодрама, криминал, WEB-DL 720p] MVO ["Синема УС"] pb.wtf

Мэверик: охота в Бразилии через торрент pb.wtf

Размер: 3.13 GB | Добавлен: 1 год 8 мес. назад | Торрент скачан:59 раз
Скачать  

19-03-2018 13:11 Мэверик: охота в Бразилии Скачать торрент  

Мэверик: охота в Бразилии / Maverick: Manhunt BrazilГод выпуска: 2016
Страна: Бразилия
Жанр: боевик, триллер, мелодрама, криминал
Продолжительность: 01:33:08
Перевод: Любительский (многоголосый) | "Синема УС"
Субтитры: отсутствуют

Режиссер: Эмилиано Рушель

rating

В ролях:

Эмилиано Рушель, Ларисса Вереса, Пьетра Гаспарин, Карла Элгерт, Марсио Килинг, Массаюки Ямамото, Мишель Биркхойер, Цезарь Скутегагна, Карлос Такеши, Марк Лукас

Описание:

Наёмный убийца из США прибывает на задание в небольшой бразильский городок, чтобы убить главу международного наркокартеля, но сам оказывается целью для киллеров.

Качество: WEB-DL 720p
Формат: MKV

Видео: 4428 Kбит/с, 1280x536
Аудио#1: Русский, (AC3, 2 ch, 384 Кбит/с)
скриншот  скриншот  скриншот  

Общее
Уникальный идентификатор : 202185776709108715441351989963817104442 (0x981B906D66A639238ECEAFFC6DF6343A)
Полное имя : D:\Maverick.Manhunt.Brazil.2017.P.WEB-DL.72Op_KOSHARA.mkv
Формат : Matroska
Версия формата : Version 2
Размер файла : 3,13 Гбайт
Продолжительность : 1 ч. 33 м.
Режим общего битрейта : Переменный
Общий поток : 4814 Кбит/сек
Дата кодирования : UTC 2018-03-16 18:27:32
Программа кодирования : mkvmerge v8.3.0 ('Over the Horizon') 64bit
Библиотека кодирования : libebml v1.3.1 + libmatroska v1.4.2

Видео
Идентификатор : 1
Формат : AVC
Формат/Информация : Advanced Video Codec
Профиль формата : High@L4.1
Параметр CABAC формата : Да
Параметр RefFrames формата : 4 кадра
Идентификатор кодека : V_MPEG4/ISO/AVC
Продолжительность : 1 ч. 33 м.
Вид битрейта : Переменный
Битрейт : 4428 Кбит/сек
Максимальный битрейт : 5000 Кбит/сек
Ширина : 1280 пикселей
Высота : 536 пикселей
Соотношение сторон : 2,40:1
Режим частоты кадров : Постоянный
Частота кадров : 23,976 (24000/1001) кадра/сек
Стандарт вещания : Component
Цветовое пространство : YUV
Субдискретизация насыщенности : 4:2:0
Битовая глубина : 8 бит
Тип развёртки : Прогрессивная
Бит/(Пиксели*Кадры) : 0.263
Размер потока : 2,82 Гбайт (90%)
Default : Да
Forced : Нет
Цветовой диапазон : Limited
Основные цвета : BT.709
Характеристики трансфера : BT.709
Коэффициенты матрицы : BT.709

Аудио
Идентификатор : 2
Формат : AC-3
Формат/Информация : Audio Coding 3
Расширение режима : CM (complete main)
Параметр Endianness формата : Big
Идентификатор кодека : A_AC3
Продолжительность : 1 ч. 33 м.
Вид битрейта : Постоянный
Битрейт : 384 Кбит/сек
Каналы : 2 канала
Расположение каналов : Front: L R
Частота : 48,0 КГц
Частота кадров : 31,250 кадров/сек (1536 spf)
Метод сжатия : С потерями
Размер потока : 256 Мбайт (8%)
Default : Да
Forced : Нет

pb.wtf



Скачать Мэверик: охота в Бразилии через торрент http://img12.lostpic.net/2018/03/19/d0266c51eb3f7507087d6a7c23c2f85a.jpg Скачать фильм Мэверик: охота в Бразилии через торрент бесплантно в хорошем качестве Описание: Наёмный убийца из США прибывает на задание в небольшой бразильский городок, чтобы убить главу международного наркокартеля, но сам ... 10 10 3
Торрент: Зарегистрирован [2018-03-19 13:11] · скачан: 59 раз
Статус: T временная
Размер: 3.13 GB
Как cкачать? Как скачать Мэверик: охота в Бразилии через торрент | qTorrent

% Раздел Тема Автор DL S | L
T Фильмы (мультфильмы) cо спонсором показа (Новинки AVI/MKV) [ 1.37 GB ] Мэверик: охота в Бразилии / Maverick: Manhunt Brazil [2016 WEB-DLRip] MVO ["Синема УС"] bober100 Скачать
1 | 0

28-11-2019 20:33  

Отключить всю рекламу на сайте

    Дорогой пользователь! Огромная просьба, поблагодарите релизера, оцените раздачу и оставьте свои комментарий, если Вы скачали Мэверик: охота в Бразилии через торрент бесплатно! Внесите свою лепту в развитие PiratBit!
    Комментировать посты могут только пользователи прошедшие не сложную регистрацию
    Показать сообщения:    

    Мэверик: охота в Бразилии через торрент
    Скачать бесплатно Мэверик: охота в Бразилии
    Мэверик: охота в Бразилии скачать торрент
    Мэверик: охота в Бразилии смотреть онлайн
    Cкачать фильм Мэверик: охота в Бразилии бесплатно
    Мэверик: охота в Бразилии скачать торрент в хорошем качестве
    Мэверик: охота в Бразилии смотреть онлайн бесплатно в хорошем качестве


    Вы не можете начинать темы
    Вы не можете отвечать на сообщения
    Вы не можете редактировать свои сообщения
    Вы не можете удалять свои сообщения
    Вы не можете голосовать в опросах
    Вы не можете прикреплять файлы к сообщениям
    Вы можете скачивать файлы