Всегда рабочее зеркало без VPN и Proxy просто перед .vidak.icu напиши любое слово или цифру, Пример http://jxhu.vidak.icu

Лицензия

MVO

1 сезон

1

1 сезон

iTunes

1 сезон

13

1 сезон

Deluxe

pack

Рекомендуем

Repack

30

ВАЖНО

RePack

MK11

RePack

jed

RePack

fifa19

RePack

RDR2

RePack

NEED FOR SPEED™ PAYBACK

Кинопоиск HD

6 сезон

 Острые козырьки 6 сезон

Все сериалы

все сериалы на PB.wtf

RePack

FAR CRY 5
  
Magnet ссылка

Тайны древности. Троянский конь миф или реальность? / Ancient Mysteries: Trojan Horse The New Evidence (Том Фоули) [2014 г., Документальный, исследования, археология, SatRip,Дубляж)] (студия «СВ-Дубль) pb.wtf

Тайны древности. Троянский конь миф или реальность? через торрент pb.wtf

Размер: 667 MB | Добавлен: 4 года 4 мес. назад | Торрент скачан:45 раз
Смотреть онлайн Тайны древности. Троянский конь миф или реальность? | Скачать    Ребята, помогите собрать деньги на оплату серверов!!!

29-03-2018 07:09 Тайны древности. Троянский конь миф или реальность? Скачать торрент  

Тайны древности. Троянский конь миф или реальность? / Ancient Mysteries: Trojan Horse The New Evidence
Год выпуска: 2014
Страна: Великобритания, Blink Entertainment Ltf
Жанр: Документальный, исследования, археология
Продолжительность: 00:49:21
Перевод:Дубляж (студия «СВ-Дубль)
Режиссер: Том Фоули

Описание:

Легенда гласит, что неприступный город Троя был взят с помощью одной лишь хитрости. Обманутые жители сами распахнули ворота перед гигантским деревянным конем, внутри которого прятались враги. Древнегреческая поэма, из которой мы узнали об этой истории - одно из величайших произведений мировой литературы. Но, может, это не просто легенда? Существовал ли в действительности троянский конь? Сейчас специалисты ищут доказательства того, что у древних греков была возможность построить такое невероятное сооружение. Они пытаются проверить предположение о том, что троянский конь был революционным видом военной техники, и исследуют самые смелые теории, чтобы выяснить, что привело к падению Трои.




Качество: SatRip
Формат: AVI
Видео кодек: Xvid
Аудио кодек: AC3
Видео: Xvid (720x400), 1800 Кбит/с, 25.000 кадра/сек
Аудио#1: AC-3, 2 ch,192 kbps (Rus) 48.0 KHz
Релиз от: alf62
скриншот  скриншот  скриншот  

Общее
Полное имя : E:\Запись\Троянский конь миф или реальность\Троянский.конь.миф.или.реальность.2014.XviD.SATRip.alf62.avi
Формат : AVI
Формат/Информация : Audio Video Interleave
Размер файла : 667 Мбайт
Продолжительность : 46 м.
Общий поток : 2002 Кбит/сек
Программа кодирования : VirtualDubMod 1.5.10.3 | www.virtualdub-fr.org || (build 2550/release)
Библиотека кодирования : VirtualDubMod build 2550/release

Видео
Идентификатор : 0
Формат : MPEG-4 Visual
Профиль формата : Advanced [email protected]
Параметр BVOP формата : 2
Параметр QPel формата : Нет
Параметр GMC формата : Без точки перехода
Параметр матрицы формата : Default (MPEG)
Идентификатор кодека : XVID
Идентификатор кодека/Подсказка : XviD
Продолжительность : 46 м.
Битрейт : 1800 Кбит/сек
Ширина : 720 пикселей
Высота : 400 пикселей
Соотношение сторон : 16:9
Частота кадров : 25,000 кадров/сек
Цветовое пространство : YUV
Субдискретизация насыщенности : 4:2:0
Битовая глубина : 8 бит
Тип развёртки : Прогрессивная
Метод сжатия : С потерями
Бит/(Пиксели*Кадры) : 0.250
Размер потока : 600 Мбайт (90%)
Библиотека кодирования : XviD 73

Аудио
Идентификатор : 1
Формат : AC-3
Формат/Информация : Audio Coding 3
Расширение режима : CM (complete main)
Параметр Endianness формата : Big
Идентификатор кодека : 2000
Продолжительность : 46 м.
Вид битрейта : Постоянный
Битрейт : 192 Кбит/сек
Каналы : 2 канала
Расположение каналов : Front: L R
Частота : 48,0 КГц
Битовая глубина : 16 бит
Метод сжатия : С потерями
Размер потока : 64,0 Мбайт (10%)
Выравнивание : Разделение по промежуткам
Продолжительность промежутка : 40 мс. (1,00 видеокадр)
Время предзагрузки промежутка : 500 мс.

pb.wtf



Скачать Тайны древности. Троянский конь миф или реальность? через торрент http://i1.imageban.ru/out/2018/03/28/63d77707aa2b05dc72f5c04568052a88.jpg Скачать, смотреть онлайн Тайны древности. Троянский конь миф или реальность? бесплантно в хорошем качестве Описание: Легенда гласит, что неприступный город Троя был взят с помощью одной лишь хитрости. Обманутые жители сами распахнули ворота перед ... 8.5 10 2
Торрент: Зарегистрирован [2018-03-29 07:09] · скачан: 45 раз
Статус: √ проверено
Размер: 667 MB
Как cкачать? Как скачать Тайны древности. Троянский конь миф или реальность? через торрент | UTorrent

28-11-2019 20:33  

Отключить вcю реклaмy на сайте

    Дорогой пользователь! Огромная просьба, поблагодарите релизера, оцените раздачу и оставьте свои комментарий, если Вы скачали Тайны древности. Троянский конь миф или реальность? через торрент бесплатно!
    Комментировать посты могут только пользователи прошедшие не сложную регистрацию
    Показать сообщения:    

    Тайны древности. Троянский конь миф или реальность? через торрент
    Скачать бесплатно Тайны древности. Троянский конь миф или реальность?
    Тайны древности. Троянский конь миф или реальность? скачать торрент
    Тайны древности. Троянский конь миф или реальность? смотреть онлайн
    Cкачать фильм Тайны древности. Троянский конь миф или реальность? бесплатно
    Тайны древности. Троянский конь миф или реальность? скачать торрент в хорошем качестве
    Тайны древности. Троянский конь миф или реальность? смотреть онлайн бесплатно в хорошем качестве


    Вы не можете начинать темы
    Вы не можете отвечать на сообщения
    Вы не можете редактировать свои сообщения
    Вы не можете удалять свои сообщения
    Вы не можете голосовать в опросах
    Вы не можете прикреплять файлы к сообщениям
    Вы можете скачивать файлы