Ссылка на приватное зеркало нашего сайта всего за 1$. Внимание количество ограничено!!!

2 сезон

iTunes

1 сезон

1

iTunes

iTunes

iTunes

1 сезон

RePack

30

ИГРА 18+

pack

ВАЖНО

!!Акция!!

Alien_RageХит недели

RePack

MK11
pack

Забери бонус

RePack

jed

!!Акция!!

Alien_Rage

RePack

fifa19

RePack

Assassins Creed: Odyssey

RePack

NEED FOR SPEED™ PAYBACK

4 сезон

9 сезон

Бесстыжие 9 сезон

Все сериалы

все сериалы на PB.wtf

RePack

FAR CRY 5
  

Рождество без пощады / Mercy Christmas (Райан Нельсон) [2017, ужасы, боевик, комедия, BDRip 720p] MVO ["Синема УС"] pb.wtf

Рождество без пощады через торрент pb.wtf

Размер: 3.69 GB | Добавлен: 2 года 6 мес. назад | Торрент скачан:47 раз
Скачать  

01-04-2018 14:08 Рождество без пощады Скачать торрент  

Рождество без пощады / Mercy ChristmasГод выпуска: 2017
Страна: США
Жанр: ужасы, боевик, комедия
Продолжительность: 01:25:38
Перевод: Любительский (многоголосый) | "Синема УС"
Субтитры: отсутствуют

Режиссер: Райан Нельсон

rating

В ролях:

Кэйси О'Кифи, Макензи Коффман, Гвен Ван Дам, Дакота Шепард, Коул Глисон, Рода Пелл, Дэвид Рупрехт, Форест Хостеттер, Джозеф Кин, Уитни Нилсен

Описание:

Майкл Брискетт встречает идеальную женщину, и она приглашает его домой, чтобы осуществить его мечту - провести Рождество в кругу её семьи. Но вскоре мечты рушатся, а Майклу приходится бороться за жизнь, ведь он понимает, что ОН и должен стать их рождественским ужином.

Качество: BDRip 720p
Формат: MKV

Видео: 5598 Kb/s, 1280x720
Аудио#1: Русский (AC3, 2 ch, 448Кбит/с)
скриншот  скриншот  скриншот  

Общее
Уникальный идентификатор : 207373625802247651288564784983963166060 (0x9C02B522B58D8EA99B9289BA2FF9656C)
Полное имя : D:\Mercy.Christmas.2017.P.BDRip.72Op_KOSHARA.mkv
Формат : Matroska
Версия формата : Version 2
Размер файла : 3,69 Гбайт
Продолжительность : 1 ч. 25 м.
Режим общего битрейта : Переменный
Общий поток : 6169 Кбит/сек
Дата кодирования : UTC 2018-03-27 18:03:41
Программа кодирования : mkvmerge v8.3.0 ('Over the Horizon') 64bit
Библиотека кодирования : libebml v1.3.1 + libmatroska v1.4.2

Видео
Идентификатор : 1
Формат : AVC
Формат/Информация : Advanced Video Codec
Профиль формата : High@L4.1
Параметр CABAC формата : Да
Параметр RefFrames формата : 4 кадра
Идентификатор кодека : V_MPEG4/ISO/AVC
Продолжительность : 1 ч. 25 м.
Вид битрейта : Переменный
Битрейт : 5598 Кбит/сек
Максимальный битрейт : 6700 Кбит/сек
Ширина : 1280 пикселей
Высота : 720 пикселей
Соотношение сторон : 16:9
Режим частоты кадров : Постоянный
Частота кадров : 23,976 (24000/1001) кадра/сек
Стандарт вещания : Component
Цветовое пространство : YUV
Субдискретизация насыщенности : 4:2:0
Битовая глубина : 8 бит
Тип развёртки : Прогрессивная
Бит/(Пиксели*Кадры) : 0.253
Размер потока : 3,35 Гбайт (91%)
Default : Да
Forced : Нет
Цветовой диапазон : Limited
Основные цвета : BT.709
Характеристики трансфера : BT.709
Коэффициенты матрицы : BT.709

Аудио
Идентификатор : 2
Формат : AC-3
Формат/Информация : Audio Coding 3
Расширение режима : CM (complete main)
Параметр Endianness формата : Big
Идентификатор кодека : A_AC3
Продолжительность : 1 ч. 25 м.
Вид битрейта : Постоянный
Битрейт : 448 Кбит/сек
Каналы : 2 канала
Расположение каналов : Front: L R
Частота : 48,0 КГц
Частота кадров : 31,250 кадров/сек (1536 spf)
Метод сжатия : С потерями
Размер потока : 274 Мбайт (7%)
Default : Да
Forced : Нет
pb.wtf



Скачать Рождество без пощады через торрент http://img12.lostpic.net/2018/04/01/0e51d8f325a5d0260bfe2e88b43e1d9a.jpg Скачать фильм Рождество без пощады через торрент бесплантно в хорошем качестве Описание: Майкл Брискетт встречает идеальную женщину, и она приглашает его домой, чтобы осуществить его мечту - провести Рождество в кругу ... 7.8 10 5
Торрент: Зарегистрирован [2018-04-01 14:08] · скачан: 47 раз
Статус: T временная
Размер: 3.69 GB
Как cкачать? Как скачать Рождество без пощады через торрент | qTorrent

% Раздел Тема Автор DL S | L
T Фильмы (мультфильмы) cо спонсором показа (Новинки AVI/MKV) [ 1.37 GB ] Рождество без пощады / Mercy Christmas [2017 HDRip] MVO ["Синема УС"] bober100 Скачать
1 | 0

28-11-2019 20:33  

Отключить всю рекламу на сайте

    Дорогой пользователь! Огромная просьба, поблагодарите релизера, оцените раздачу и оставьте свои комментарий, если Вы скачали Рождество без пощады через торрент бесплатно! Внесите свою лепту в развитие PiratBit!
    Комментировать посты могут только пользователи прошедшие не сложную регистрацию
    Показать сообщения:    

    Рождество без пощады через торрент
    Скачать бесплатно Рождество без пощады
    Рождество без пощады скачать торрент
    Рождество без пощады смотреть онлайн
    Cкачать фильм Рождество без пощады бесплатно
    Рождество без пощады скачать торрент в хорошем качестве
    Рождество без пощады смотреть онлайн бесплатно в хорошем качестве


    Вы не можете начинать темы
    Вы не можете отвечать на сообщения
    Вы не можете редактировать свои сообщения
    Вы не можете удалять свои сообщения
    Вы не можете голосовать в опросах
    Вы не можете прикреплять файлы к сообщениям
    Вы можете скачивать файлы