Лицензия

MVO

1

1 сезон

Лицензия

Лицензия

13

MVO

1 сезон

Deluxe Edition

pack

Рекомендуем

30

Repack

ВАЖНО

ВАЖНО

Ghostwire

RePack

jed

RePack

fifa19

RePack

RDR2

RePack

NEED FOR SPEED™ PAYBACK

RePack

Кинопоиск HD

 Острые козырьки 6 сезон

6 сезон

FAR CRY 6

RePack

Лицензия

MVO

1

1 сезон

1 сезон

Лицензия

  

ЛЕГО Ниндзяго Фильм / The LEGO Ninjago Movie (Чарли Бин, Пол Фишер, Боб Логан) [2017 г., Мультфильм, семейный, BDRip, Дубляж iTunes]

ЛЕГО Ниндзяго Фильм через торрент pb.wtf

Размер: 1.42 GB | Добавлен: 4 года 8 мес. назад | Торрент скачан:570 раз
Смотреть онлайн ЛЕГО Ниндзяго Фильм | Скачать   

27-12-2017 05:39 ЛЕГО Ниндзяго Фильм Скачать торрент  

ЛЕГО Ниндзяго Фильм / The LEGO Ninjago Movie
Год выпуска: 2017
Страна: Дания, США
Жанр: Мультфильм, семейный
Продолжительность: 01:41:26
Перевод: Дубляж iTunes
Субтитры: нет

Режиссер: Чарли Бин, Пол Фишер, Боб Логан

rating

В ролях: Джеки Чан, Дэйв Франко, Фред Армисен, Кумэйл Нанджиани, Майкл Пенья, Эбби Джейкобсон, Зак Вудс, Дэвид Берроуз, Джастин Теру

Описание: Ниндзяго-сити призывает на свою защиту юного Ллойда, он же Зеленый ниндзя, и его друзей, тайных воинов и Великих мастеров ЛЕГО. Под предводительством кунг-фу мастера Ву, столь же умного, сколь и остроумного, они должны одолеть злобного диктатора Гармадона, Самого Злодейского Злодея, который оказывается отцом Ллойда. Роботы против роботов, сын против отца; эпическое столкновение проверит на прочность эту неистовую, но не самую дисциплинированную команду современных ниндзя, которые должны научиться усмирять свое самомнение, чтобы по полной проявить свои способности.

Качество: BDRip
Формат: AVI
Видео кодек: XviD
Аудио кодек: AC3
Видео: XviD, 720x304, 23.976 fps, 1603 kbps
Аудио#1: AC3, 6 ch, 384 kbps
скриншот   скриншот   скриншот   скриншот   скриншот  

General
Complete name : H:\релизы.торрентфайл\The.Lego.Ninjago.Movie.2017.BDRip.1.42Gb.MegaPeer.avi
Format : AVI
Format/Info : Audio Video Interleave
File size : 1.42 GiB
Duration : 1h 41mn
Overall bit rate : 1 997 Kbps
Writing application : VirtualDubMod 1.5.10.2 (build 2540/release)
Writing library : VirtualDubMod build 2540/release

Video
ID : 0
Format : MPEG-4 Visual
Format profile : Advanced [email protected]
Format settings, BVOP : 1
Format settings, QPel : No
Format settings, GMC : No warppoints
Format settings, Matrix : Custom
Codec ID : XVID
Codec ID/Hint : XviD
Duration : 1h 41mn
Bit rate : 1 604 Kbps
Width : 720 pixels
Height : 304 pixels
Display aspect ratio : 2.35:1
Frame rate : 23.976 fps
Color space : YUV
Chroma subsampling : 4:2:0
Bit depth : 8 bits
Scan type : Progressive
Compression mode : Lossy
Bits/(Pixel*Frame) : 0.306
Stream size : 1.14 GiB (80%)
Writing library : XviD 73

Audio
ID : 1
Format : AC-3
Format/Info : Audio Coding 3
Mode extension : CM (complete main)
Format settings, Endianness : Big
Codec ID : 2000
Duration : 1h 41mn
Bit rate mode : Constant
Bit rate : 384 Kbps
Channel(s) : 6 channels
Channel positions : Front: L C R, Side: L R, LFE
Sampling rate : 48.0 KHz
Bit depth : 16 bits
Compression mode : Lossy
Stream size : 279 MiB (19%)
Alignment : Split accross interleaves
Interleave, duration : 42 ms (1.00 video frame)
Interleave, preload duration : 500 ms




Скачать ЛЕГО Ниндзяго Фильм через торрент http://i102.fastpic.ru/big/2017/1226/dd/cb74523c85c0d18cde5337d91ae475dd.jpg Скачать, смотреть онлайн ЛЕГО Ниндзяго Фильм бесплантно в хорошем качестве Описание: Ниндзяго-сити призывает на свою защиту юного Ллойда, он же Зеленый ниндзя, и его друзей, тайных воинов и Великих мастеров ЛЕГО. ... 9.1 10 10
Торрент: Зарегистрирован [2017-12-27 05:39] · скачан: 570 раз
Статус: √ проверено
Размер: 1.42 GB
Как cкачать? Как скачать ЛЕГО Ниндзяго Фильм через торрент | UTorrent

% Раздел Тема Автор DL S | L
3D Мультфильмы [ 8.18 GB ] ЛЕГО Ниндзяго Фильм в 3Д / The LEGO Ninjago Movie 3D | verUnder | 1080p serega768 Скачать
1 | 0
Иностранные мультфильмы [ 1.51 GB ] ЛЕГО Ниндзяго Фильм / The LEGO Ninjago Movie | Лицензия | BDRip от Twi7ter Twi7ter Скачать
2 | 0
Зарубежные Мультфильмы (BDRip 1080p, 720p, Blu-ray, BD-Remux) [ 3.83 GB ] ЛЕГО Ниндзяго Фильм / The LEGO Ninjago Movie | Лицензия | 720p bober100 Скачать
1 | 0
Зарубежные Мультфильмы (BDRip 1080p, 720p, Blu-ray, BD-Remux) [ 18.58 GB ] ЛЕГО Ниндзяго Фильм / The LEGO Ninjago Movie | Лицензия | BD Remux 1080p bober100 Скачать
1 | 0
Зарубежные Мультфильмы (BDRip 1080p, 720p, Blu-ray, BD-Remux) [ 7.74 GB ] ЛЕГО Ниндзяго Фильм / The LEGO Ninjago Movie | Лицензия | 1080p bober100 Скачать
1 | 0
Иностранные мультфильмы [ 1.46 GB ] ЛЕГО Ниндзяго Фильм / The LEGO Ninjago Movie | Лицензия | BDRip от Twi7ter Twi7ter Скачать
1 | 0

28-11-2019 20:33  

Отключить вcю реклaмy на сайте

03-04-2018 16:38 ЛЕГО Ниндзяго Фильм Скачать торрент  

рекомендуется для просмотра...



    Дорогой пользователь! Огромная просьба, поблагодарите релизера, оцените раздачу и оставьте свои комментарий, если Вы скачали ЛЕГО Ниндзяго Фильм через торрент бесплатно!!
    Комментировать посты могут только пользователи прошедшие не сложную регистрацию
    Показать сообщения:    


    ЛЕГО Ниндзяго Фильм через торрент
    Скачать бесплатно ЛЕГО Ниндзяго Фильм
    ЛЕГО Ниндзяго Фильм скачать торрент
    ЛЕГО Ниндзяго Фильм смотреть онлайн
    Cкачать фильм ЛЕГО Ниндзяго Фильм бесплатно
    ЛЕГО Ниндзяго Фильм скачать торрент в хорошем качестве
    ЛЕГО Ниндзяго Фильм смотреть онлайн бесплатно в хорошем качестве
    Вы не можете начинать темы
    Вы не можете отвечать на сообщения
    Вы не можете редактировать свои сообщения
    Вы не можете удалять свои сообщения
    Вы не можете голосовать в опросах
    Вы не можете прикреплять файлы к сообщениям
    Вы можете скачивать файлы