Доктор Стрэндж

Лицензия

Добыча

Дубляж

Дом дракона

1 сезон

Тор

Дубляж

В эфире

Дубляж

Там, где раки поют

MVO

Властелин колец

1 сезон

Deluxe

pack

Рекомендуем

30

Пиратка

ВАЖНО

ВАЖНО

Ghostwire

Пиратка

jed

RePack

nioh2

RePack

RDR2

RePack

NEED FOR SPEED™ PAYBACK

RePack

скачать торрент

Кинопоиск HD

Острые козырьки 6 сезон

6 сезон

FAR CRY 6

RePack

скачать торрент

Лицензия

скачать торрент

MVO

1

1 сезон

скачать торрент

1 сезон

скачать торрент

Лицензия

  

Первый поцелуй / Ilk Öpücük (Мурат Онбул) [2017, мелодрама, комедия, WEB-DL 720p] MVO ["Синема УС"]

Первый поцелуй через торрент pb.wtf

Размер: 3.92 GB | Добавлен: 4 года 7 мес. назад | Торрент скачан:16 раз
Смотреть онлайн | Скачать   

05-04-2018 08:48 Первый поцелуй Скачать торрент  

Первый поцелуй / Ilk ÖpücükГод выпуска: 2017
Страна: Турция
Жанр: мелодрама, комедия
Продолжительность: 01:55:23
Перевод: Любительский (многоголосый) | "Синема УС"
Субтитры: отсутствуют

Режиссер: Мурат Онбул

rating семпл

В ролях:

Мурат Йылдырым, Озге Гюрель, Джезми Баскын, Хакан Акин, Сади Джелиль Дженгиз, Бирсен Дюрюлю, Беити Энгин, Гамзе Карадуман

Описание:

Обаятельный сердцеед Хакан как-то приезжает в маленький поселок, где знакомится с очаровательной учительницей Бахар. Молодые люди с первого же взгляда понравились друг другу, они вместе проводят прекрасный день, однако на следующее утро Бахар его не узнаёт. Хакан в шоке, как же так... Оказалось Бахар два года назад попала в аварию и после этого не запоминает ничего, через 24 часа всё стирается из памяти. Теперь Хакану придётся каждый день вновь влю+++++ в себя Бахар....

Качество: WEB-DL 720p
Формат: MKV

Видео: 4477 Кбит/с, 1280x688
Аудио#1: AC3, 2 ch, 384 Кбит/с
скриншот  скриншот  скриншот  

Общее
Уникальный идентификатор : 215088308902158937252221432066654565637 (0xA1D08061021AAA4AA962025706E37505)
Полное имя : D:\PerViy.PoceLui.2O17.P.WEB-DL.72Op_KOSHARA.mkv
Формат : Matroska
Версия формата : Version 2
Размер файла : 3,92 Гбайт
Продолжительность : 1 ч. 55 м.
Режим общего битрейта : Переменный
Общий поток : 4862 Кбит/сек
Дата кодирования : UTC 2018-04-04 10:42:27
Программа кодирования : mkvmerge v8.3.0 ('Over the Horizon') 64bit
Библиотека кодирования : libebml v1.3.1 + libmatroska v1.4.2

Видео
Идентификатор : 1
Формат : AVC
Формат/Информация : Advanced Video Codec
Профиль формата : [email protected]
Параметр CABAC формата : Да
Параметр RefFrames формата : 4 кадра
Идентификатор кодека : V_MPEG4/ISO/AVC
Продолжительность : 1 ч. 55 м.
Вид битрейта : Переменный
Битрейт : 4477 Кбит/сек
Максимальный битрейт : 5000 Кбит/сек
Ширина : 1280 пикселей
Высота : 688 пикселей
Соотношение сторон : 1,85:1
Режим частоты кадров : Постоянный
Частота кадров : 23,976 (24000/1001) кадра/сек
Стандарт вещания : Component
Цветовое пространство : YUV
Субдискретизация насыщенности : 4:2:0
Битовая глубина : 8 бит
Тип развёртки : Прогрессивная
Бит/(Пиксели*Кадры) : 0.208
Размер потока : 3,53 Гбайт (90%)
Default : Да
Forced : Нет
Цветовой диапазон : Limited
Основные цвета : BT.709
Характеристики трансфера : BT.709
Коэффициенты матрицы : BT.709

Аудио
Идентификатор : 2
Формат : AC-3
Формат/Информация : Audio Coding 3
Расширение режима : CM (complete main)
Параметр Endianness формата : Big
Идентификатор кодека : A_AC3
Продолжительность : 1 ч. 55 м.
Вид битрейта : Постоянный
Битрейт : 384 Кбит/сек
Каналы : 2 канала
Расположение каналов : Front: L R
Частота : 48,0 КГц
Частота кадров : 31,250 кадров/сек (1536 spf)
Метод сжатия : С потерями
Размер потока : 317 Мбайт (8%)
Default : Да
Forced : Нет




Скачать Первый поцелуй через торрент http://img12.lostpic.net/2018/04/05/e854eee0e404660456e543258f79436e.jpg Скачать, смотреть онлайн Первый поцелуй бесплантно в хорошем качестве Описание: Обаятельный сердцеед Хакан как-то приезжает в маленький поселок, где знакомится с очаровательной учительницей Бахар. Молодые люди ... 10 10 3
Торрент: Зарегистрирован [2018-04-05 08:48] · скачан: 16 раз
Статус: T временная
Размер: 3.92 GB
Как cкачать? Как скачать Первый поцелуй через торрент | UTorrent

% Раздел Тема Автор DL S | L
T Фильмы (мультфильмы) cо спонсором показа (Новинки AVI/MKV) [ 1.46 GB ] Первый поцелуй / Ilk Öpücük | MVO | DLRip bober100 Скачать
1 | 0

28-11-2019 20:33  


Отключить вcю реклaмy на сайте, в т.ч. и в плеере онлайн просмотра!

05-04-2018 10:01 Первый поцелуй Скачать торрент  

"вновь влю+++++ в себя" в этом русском даже в словах про любовь матюки. люблю его



    Дорогой пользователь! Огромная просьба, поблагодарите релизера, оцените раздачу и оставьте свои комментарий, если Вы скачали Первый поцелуй через торрент бесплатно!!
    Комментировать посты могут только пользователи прошедшие не сложную регистрацию
    Показать сообщения:    


    Первый поцелуй через торрент
    Скачать бесплатно Первый поцелуй
    Первый поцелуй скачать торрент
    Первый поцелуй смотреть онлайн
    Cкачать фильм Первый поцелуй бесплатно
    Первый поцелуй скачать торрент в хорошем качестве
    Первый поцелуй смотреть онлайн бесплатно в хорошем качестве
    Вы не можете начинать темы
    Вы не можете отвечать на сообщения
    Вы не можете редактировать свои сообщения
    Вы не можете удалять свои сообщения
    Вы не можете голосовать в опросах
    Вы не можете прикреплять файлы к сообщениям
    Вы можете скачивать файлы
    Первый поцелуй / Ilk Öpücük [2017, мелодрама, комедия, WEB-DL 720p] MVO ["Синема УС"] смотреть онлайн, скачать торрент picoco.icu